  0
SECTION
  2
HEADER
  9
$ACADVER
  1
AC1009
  9
$INSBASE
 10
0.0
 20
0.0
 30
0.0
  9
$EXTMIN
 10
15.140212693930771
 20
13.98234752536885
 30
0.0
  9
$EXTMAX
 10
23.640212693930771
 20
24.982347525368851
 30
0.0
  9
$LIMMIN
 10
13.512984166232631
 20
13.22500353838617
  9
$LIMMAX
 10
25.36279919314677
 20
26.095258071650079
  9
$ORTHOMODE
 70
     0
  9
$REGENMODE
 70
     1
  9
$FILLMODE
 70
     1
  9
$QTEXTMODE
 70
     0
  9
$MIRRTEXT
 70
     1
  9
$DRAGMODE
 70
     2
  9
$LTSCALE
 40
1.0
  9
$OSMODE
 70
  3071
  9
$ATTMODE
 70
     1
  9
$TEXTSIZE
 40
0.14
  9
$TRACEWID
 40
0.05
  9
$TEXTSTYLE
  7
ROMANT
  9
$CLAYER
  8
0
  9
$CELTYPE
  6
BYLAYER
  9
$CECOLOR
 62
   256
  9
$DIMSCALE
 40
1.0
  9
$DIMASZ
 40
0.18
  9
$DIMEXO
 40
0.0625
  9
$DIMDLI
 40
0.38
  9
$DIMRND
 40
0.0
  9
$DIMDLE
 40
0.0
  9
$DIMEXE
 40
0.14
  9
$DIMTP
 40
0.005
  9
$DIMTM
 40
0.005
  9
$DIMTXT
 40
0.14
  9
$DIMCEN
 40
-0.09
  9
$DIMTSZ
 40
0.0
  9
$DIMTOL
 70
     0
  9
$DIMLIM
 70
     0
  9
$DIMTIH
 70
     1
  9
$DIMTOH
 70
     1
  9
$DIMSE1
 70
     0
  9
$DIMSE2
 70
     0
  9
$DIMTAD
 70
     0
  9
$DIMZIN
 70
     4
  9
$DIMBLK
  1

  9
$DIMASO
 70
     1
  9
$DIMSHO
 70
     1
  9
$DIMPOST
  1
\X
  9
$DIMAPOST
  1

  9
$DIMALT
 70
     1
  9
$DIMALTD
 70
     2
  9
$DIMALTF
 40
25.399999999999999
  9
$DIMLFAC
 40
1.0
  9
$DIMTOFL
 70
     0
  9
$DIMTVP
 40
0.0
  9
$DIMTIX
 70
     0
  9
$DIMSOXD
 70
     0
  9
$DIMSAH
 70
     0
  9
$DIMBLK1
  1

  9
$DIMBLK2
  1

  9
$DIMSTYLE
  2
STANDARD
  9
$DIMCLRD
 70
     0
  9
$DIMCLRE
 70
     0
  9
$DIMCLRT
 70
     0
  9
$DIMTFAC
 40
1.0
  9
$DIMGAP
 40
0.09
  9
$LUNITS
 70
     2
  9
$LUPREC
 70
     3
  9
$SKETCHINC
 40
0.1
  9
$FILLETRAD
 40
0.1
  9
$AUNITS
 70
     0
  9
$AUPREC
 70
     0
  9
$MENU
  1
acad
  9
$ELEVATION
 40
0.0
  9
$PELEVATION
 40
0.0
  9
$THICKNESS
 40
0.0
  9
$LIMCHECK
 70
     0
  9
$BLIPMODE
 70
     0
  9
$CHAMFERA
 40
0.0
  9
$CHAMFERB
 40
0.0
  9
$SKPOLY
 70
     0
  9
$TDCREATE
 40
2449371.5725848381
  9
$TDUPDATE
 40
2457465.5905966898
  9
$TDINDWG
 40
2.8096049073999998
  9
$TDUSRTIMER
 40
2.8096049073999998
  9
$USRTIMER
 70
     1
  9
$ANGBASE
 50
0.0
  9
$ANGDIR
 70
     0
  9
$PDMODE
 70
     0
  9
$PDSIZE
 40
0.0
  9
$PLINEWID
 40
0.025
  9
$COORDS
 70
     0
  9
$SPLFRAME
 70
     0
  9
$SPLINETYPE
 70
     6
  9
$SPLINESEGS
 70
     8
  9
$ATTDIA
 70
     0
  9
$ATTREQ
 70
     1
  9
$HANDLING
 70
     1
  9
$HANDSEED
  5
A83E
  9
$SURFTAB1
 70
     6
  9
$SURFTAB2
 70
     6
  9
$SURFTYPE
 70
     6
  9
$SURFU
 70
     6
  9
$SURFV
 70
     6
  9
$UCSNAME
  2

  9
$UCSORG
 10
12.78967335273555
 20
11.197275328822469
 30
0.0
  9
$UCSXDIR
 10
1.0
 20
0.0
 30
0.0
  9
$UCSYDIR
 10
0.0
 20
1.0
 30
0.0
  9
$PUCSNAME
  2

  9
$PUCSORG
 10
0.0
 20
0.0
 30
0.0
  9
$PUCSXDIR
 10
1.0
 20
0.0
 30
0.0
  9
$PUCSYDIR
 10
0.0
 20
1.0
 30
0.0
  9
$USERI1
 70
     0
  9
$USERI2
 70
     0
  9
$USERI3
 70
     0
  9
$USERI4
 70
     0
  9
$USERI5
 70
     0
  9
$USERR1
 40
0.0
  9
$USERR2
 40
0.0
  9
$USERR3
 40
0.0
  9
$USERR4
 40
0.0
  9
$USERR5
 40
0.0
  9
$WORLDVIEW
 70
     1
  9
$SHADEDGE
 70
     3
  9
$SHADEDIF
 70
    70
  9
$TILEMODE
 70
     1
  9
$MAXACTVP
 70
    16
  9
$PLIMCHECK
 70
     0
  9
$PEXTMIN
 10
1.0000000000000000E+020
 20
1.0000000000000000E+020
 30
1.0000000000000000E+020
  9
$PEXTMAX
 10
-1.0000000000000000E+020
 20
-1.0000000000000000E+020
 30
-1.0000000000000000E+020
  9
$PLIMMIN
 10
0.0
 20
0.0
  9
$PLIMMAX
 10
12.0
 20
9.0
  9
$UNITMODE
 70
     0
  9
$VISRETAIN
 70
     0
  9
$PLINEGEN
 70
     0
  9
$PSLTSCALE
 70
     0
  0
ENDSEC
  0
SECTION
  2
TABLES
  0
TABLE
  2
VPORT
 70
     1
  0
VPORT
  2
*ACTIVE
 70
     0
 10
0.0
 20
0.0
 11
1.0
 21
1.0
 12
19.382788421030821
 22
19.506707649557171
 13
0.0
 23
0.0
 14
0.05
 24
0.05
 15
0.5
 25
0.5
 16
0.0
 26
0.0
 36
1.0
 17
0.0
 27
0.0
 37
0.0
 40
25.6635982476061
 41
1.5574783683559941
 42
50.0
 43
0.0
 44
0.0
 50
0.0
 51
0.0
 71
     0
 72
   100
 73
     1
 74
     0
 75
     0
 76
     0
 77
     0
 78
     2
  0
ENDTAB
  0
TABLE
  2
LTYPE
 70
     6
  0
LTYPE
  2
CONTINUOUS
 70
     0
  3
Solid line
 72
    65
 73
     0
 40
0.0
  0
LTYPE
  2
ACAD_ISO07W100
 70
     0
  3
ISO dot . . . . . . . . . . . . . . . . . . . .
 72
    65
 73
     2
 40
3.0
 49
0.0
 49
-3.0
  0
LTYPE
  2
HIDDEN
 70
     0
  3
Hidden __ __ __ __ __ __ __ __ __ __ __ __ __ _
 72
    65
 73
     2
 40
0.375
 49
0.25
 49
-0.125
  0
LTYPE
  2
DASHED2
 70
     0
  3
Dashed (.5x) _ _ _ _ _ _ _ _ _ _ _ _ _ _ _ _ _
 72
    65
 73
     2
 40
0.375
 49
0.25
 49
-0.125
  0
LTYPE
  2
DOT2
 70
     0
  3
Dot (.5x) .....................................
 72
    65
 73
     2
 40
0.125
 49
0.0
 49
-0.125
  0
LTYPE
  2
CENTERX2
 70
     0
  3
Center (2x) ________  __  ________  __  _____
 72
    65
 73
     4
 40
0.8
 49
0.5
 49
-0.1
 49
0.1
 49
-0.1
  0
ENDTAB
  0
TABLE
  2
LAYER
 70
     7
  0
LAYER
  2
0
 70
     0
 62
     7
  6
CONTINUOUS
  0
LAYER
  2
TITLE
 70
     0
 62
     5
  6
CONTINUOUS
  0
LAYER
  2
DIMENSION
 70
     0
 62
     3
  6
CONTINUOUS
  0
LAYER
  2
DEFPOINTS
 70
     0
 62
     7
  6
CONTINUOUS
  0
LAYER
  2
OBJECT
 70
     0
 62
     7
  6
CONTINUOUS
  0
LAYER
  2
SLD-0
 70
     0
 62
   179
  6
CONTINUOUS
  0
LAYER
  2
NOTES
 70
     0
 62
     1
  6
CONTINUOUS
  0
ENDTAB
  0
TABLE
  2
STYLE
 70
     8
  0
STYLE
  2
STANDARD
 70
     0
 40
0.0
 41
1.0
 50
0.0
 71
     0
 42
0.2
  3
txt
  4

  0
STYLE
  2
SIMPLEX
 70
     0
 40
0.0
 41
1.0
 50
0.0
 71
     0
 42
0.0
  3
SIMPLEX
  4

  0
STYLE
  2
ROMAND
 70
     0
 40
0.0
 41
1.0
 50
0.0
 71
     0
 42
0.0
  3
ROMAND
  4

  0
STYLE
  2
ROMANS
 70
     0
 40
0.0
 41
1.0
 50
0.0
 71
     0
 42
0.15
  3
romans
  4

  0
STYLE
  2
TXT
 70
     0
 40
0.0
 41
1.0
 50
0.0
 71
     0
 42
0.0
  3
C:\Program Files\AutoCAD LT\romans.shx
  4

  0
STYLE
  2
ROMANT
 70
     0
 40
0.0
 41
1.0
 50
0.0
 71
     0
 42
0.14
  3
romant.shx
  4

  0
STYLE
  2

 70
     1
 40
0.0
 41
1.0
 50
0.0
 71
     0
 42
0.14
  3
ltypeshp.shx
  4

  0
STYLE
  2
SLDTEXTSTYLE5
 70
     0
 40
0.0
 41
0.605
 50
0.0
 71
     0
 42
0.125
  3
TXT
  4

  0
ENDTAB
  0
TABLE
  2
VIEW
 70
     0
  0
ENDTAB
  0
TABLE
  2
UCS
 70
     0
  0
ENDTAB
  0
TABLE
  2
APPID
 70
     6
  0
APPID
  2
ACAD
 70
     0
  0
APPID
  2
CONTENTBLOCKICON
 70
     0
  0
APPID
  2
ACAD_EXEMPT_FROM_CAD_STANDARDS
 70
     0
  0
APPID
  2
ACAD_NAV_VCDISPLAY
 70
     0
  0
APPID
  2
ACAD_DSTYLE_DIMRADIAL_EXTENSION
 70
     0
  0
APPID
  2
ACAD_MLEADERVER
 70
     0
  0
ENDTAB
  0
TABLE
  2
DIMSTYLE
 70
     5
  0
DIMSTYLE
  2
STANDARD
 70
     0
  3

  4

  5

  6

  7

 40
1.0
 41
0.18
 42
0.0625
 43
0.38
 44
0.14
 45
0.0
 46
0.0
 47
0.0
 48
0.0
140
0.14
141
0.0
142
0.0
143
25.399999999999999
144
1.0
145
0.0
146
1.0
147
0.09
 71
     0
 72
     0
 73
     1
 74
     1
 75
     0
 76
     0
 77
     0
 78
     4
170
     0
171
     2
172
     0
173
     0
174
     1
175
     0
176
     0
177
     0
178
     0
  0
DIMSTYLE
  2
SLDDIMSTYLE1
 70
     0
  3

  4

  5

  6

  7

 40
1.0
 41
0.13
 42
0.0625
 43
0.38
 44
0.0
 45
0.000000001
 46
0.0
 47
0.0
 48
0.0
140
0.125
141
0.09
142
0.0
143
25.399999999999999
144
1.0
145
0.0
146
1.0
147
0.03125
 71
     0
 72
     0
 73
     1
 74
     1
 75
     0
 76
     0
 77
     0
 78
    12
170
     0
171
     2
172
     0
173
     1
174
     0
175
     0
176
     0
177
     0
178
     0
  0
DIMSTYLE
  2
SLDDIMSTYLE2
 70
     0
  3

  4

  5

  6

  7

 40
1.0
 41
0.13
 42
0.0625
 43
0.38
 44
0.0
 45
0.000000001
 46
0.0
 47
0.0
 48
0.0
140
0.125
141
0.09
142
0.0
143
25.399999999999999
144
1.0
145
0.0
146
1.0
147
0.03125
 71
     0
 72
     0
 73
     1
 74
     1
 75
     0
 76
     0
 77
     0
 78
     4
170
     0
171
     2
172
     1
173
     1
174
     0
175
     0
176
     0
177
     0
178
     0
  0
DIMSTYLE
  2
SLDDIMSTYLE6
 70
     0
  3

  4

  5

  6

  7

 40
1.0
 41
0.13
 42
0.0625
 43
0.38
 44
0.0
 45
0.000000001
 46
0.0
 47
0.0
 48
0.0
140
0.125
141
0.09
142
0.0
143
25.399999999999999
144
1.0
145
0.0
146
1.0
147
0.03125
 71
     0
 72
     0
 73
     1
 74
     1
 75
     0
 76
     0
 77
     0
 78
    12
170
     0
171
     2
172
     1
173
     1
174
     0
175
     0
176
     0
177
     0
178
     0
  0
DIMSTYLE
  2
SLDDIMSTYLE7
 70
     0
  3

  4

  5

  6

  7

 40
1.0
 41
0.13
 42
0.0625
 43
0.38
 44
0.0
 45
0.000000001
 46
0.0
 47
0.0
 48
0.0
140
0.18
141
0.09
142
0.0
143
25.399999999999999
144
1.0
145
0.0
146
0.13
147
0.0
 71
     0
 72
     0
 73
     1
 74
     1
 75
     0
 76
     0
 77
     0
 78
     0
170
     0
171
     2
172
     0
173
     1
174
     0
175
     0
176
     0
177
     0
178
     0
  0
ENDTAB
  0
ENDSEC
  0
SECTION
  2
BLOCKS
  0
BLOCK
  8
0
  2
$MODEL_SPACE
 70
     0
 10
0.0
 20
0.0
 30
0.0
  3
$MODEL_SPACE
  1

  0
ENDBLK
  5
63
  8
0
  0
BLOCK
 67
     1
  8
0
  2
$PAPER_SPACE
 70
     0
 10
0.0
 20
0.0
 30
0.0
  3
$PAPER_SPACE
  1

  0
ENDBLK
  5
61
 67
     1
  8
0
  0
BLOCK
  8
0
  2
$34
 70
     0
 10
0.0
 20
0.0
 30
0.0
  3
$34
  1

  0
ENDBLK
  5
1C95
  8
0
  0
BLOCK
  8
0
  2
$30
 70
     0
 10
0.0
 20
0.0
 30
0.0
  3
$30
  1

  0
ENDBLK
  5
1C98
  8
0
  0
BLOCK
  8
0
  2
$2
 70
     0
 10
0.0
 20
0.0
 30
0.0
  3
$2
  1

  0
ENDBLK
  5
1C9B
  8
0
  0
BLOCK
  8
0
  2
A$C4F6036DE
 70
     0
 10
0.0
 20
0.0
 30
0.0
  3
A$C4F6036DE
  1

  0
INSERT
  5
9FAA
  8
0
  2
*U70
 10
0.0
 20
0.0
 30
0.0
  0
ENDBLK
  5
9FAD
  8
0
  0
BLOCK
  8
0
  2
*D4
 70
     1
 10
0.0
 20
0.0
 30
0.0
  3
*D4
  1

  0
LINE
  5
A7C7
  8
0
 62
     0
 10
19.452712693930771
 20
22.034347525368851
 30
0.0
 11
19.530212693930771
 21
22.034347525368851
 31
0.0
  0
LINE
  5
A7C8
  8
0
 62
     0
 10
19.452712693930771
 20
16.930347525368848
 30
0.0
 11
19.530212693930771
 21
16.930347525368848
 31
0.0
  0
LINE
  5
A7C9
  8
0
 62
     0
 10
19.390212693930771
 20
21.854347525368851
 30
0.0
 11
19.390212693930771
 21
20.833008432861909
 31
0.0
  0
LINE
  5
A7CA
  8
0
 62
     0
 10
19.390212693930771
 20
17.110347525368852
 30
0.0
 11
19.390212693930771
 21
20.179675099528581
 31
0.0
  0
SOLID
  5
A7CB
  8
0
 62
     0
 10
19.360212693930769
 20
21.854347525368851
 30
0.0
 11
19.420212693930772
 21
21.854347525368851
 31
0.0
 12
19.390212693930771
 22
22.034347525368851
 32
0.0
 13
19.390212693930771
 23
22.034347525368851
 33
0.0
  0
SOLID
  5
A7CC
  8
0
 62
     0
 10
19.360212693930769
 20
17.110347525368852
 30
0.0
 11
19.420212693930772
 21
17.110347525368852
 31
0.0
 12
19.390212693930771
 22
16.930347525368848
 32
0.0
 13
19.390212693930771
 23
16.930347525368848
 33
0.0
  0
TEXT
  8
0
  40
0.14
  5
A83A
  62
0
  72
0
  71
0
 10
19.1102
 20
20.2585
 30
0.000000
  1
5.104"
  7
ROMANS
  0
TEXT
  8
0
  40
0.14
  5
A83B
  62
0
  72
0
  71
0
 10
19.1102
 20
20.0765
 30
0.000000
  1
 [129.64]
  7
ROMANS
  0
POINT
  5
A7CE
  8
DEFPOINTS
 62
     0
 10
19.390212693930771
 20
22.034347525368851
 30
0.0
  0
POINT
  5
A7CF
  8
DEFPOINTS
 62
     0
 10
19.390212693930771
 20
16.930347525368848
 30
0.0
  0
POINT
  5
A7D0
  8
DEFPOINTS
 62
     0
 10
19.390212693930771
 20
16.930347525368848
 30
0.0
  0
ENDBLK
  5
A0AF
  8
0
  0
BLOCK
  8
0
  2
*D5
 70
     1
 10
0.0
 20
0.0
 30
0.0
  3
*D5
  1

  0
LINE
  5
A7D1
  8
0
 62
     0
 10
18.62521269393077
 20
19.544847525368851
 30
0.0
 11
18.62521269393077
 21
19.622347525368848
 31
0.0
  0
LINE
  5
A7D2
  8
0
 62
     0
 10
20.155212693930771
 20
19.544847525368851
 30
0.0
 11
20.155212693930771
 21
19.622347525368848
 31
0.0
  0
LINE
  5
A7D3
  8
0
 62
     0
 10
18.80521269393077
 20
19.482347525368851
 30
0.0
 11
19.975212693930771
 21
19.482347525368851
 31
0.0
  0
LINE
  5
A7D4
  8
0
 62
     0
 10
20.155212693930771
 20
19.482347525368851
 30
0.0
 11
20.335212693930771
 21
19.482347525368851
 31
0.0
  0
SOLID
  5
A7D5
  8
0
 62
     0
 10
18.80521269393077
 20
19.512347525368849
 30
0.0
 11
18.80521269393077
 21
19.45234752536885
 31
0.0
 12
18.62521269393077
 22
19.482347525368851
 32
0.0
 13
18.62521269393077
 23
19.482347525368851
 33
0.0
  0
SOLID
  5
A7D6
  8
0
 62
     0
 10
19.975212693930771
 20
19.512347525368849
 30
0.0
 11
19.975212693930771
 21
19.45234752536885
 31
0.0
 12
20.155212693930771
 22
19.482347525368851
 32
0.0
 13
20.155212693930771
 23
19.482347525368851
 33
0.0
  0
TEXT
  8
0
  40
0.14
  5
A83C
  62
0
  72
0
  71
0
 10
20.5919
 20
19.2345
 30
0.000000
  1
1.530"
  7
ROMANS
  0
TEXT
  8
0
  40
0.14
  5
A83D
  62
0
  72
0
  71
0
 10
20.5919
 20
19.0525
 30
0.000000
  1
 [38.86]
  7
ROMANS
  0
POINT
  5
A7D8
  8
DEFPOINTS
 62
     0
 10
18.62521269393077
 20
19.482347525368851
 30
0.0
  0
POINT
  5
A7D9
  8
DEFPOINTS
 62
     0
 10
20.155212693930771
 20
19.482347525368851
 30
0.0
  0
POINT
  5
A7DA
  8
DEFPOINTS
 62
     0
 10
20.155212693930771
 20
19.482347525368851
 30
0.0
  0
ENDBLK
  5
A0C7
  8
0
  0
BLOCK
  8
0
  2
_D_26
 70
     0
 10
0.0
 20
0.0
 30
0.0
  3
_D_26
  1

  0
SOLID
  5
A109
  8
SLD-0
 62
     7
 10
30.8693735176
 20
11.136770349200001
 30
0.0
 11
30.849373517600011
 21
11.0067703492
 31
0.0
 12
30.889373517599999
 22
11.0067703492
 32
0.0
 13
30.889373517599999
 23
11.0067703492
 33
0.0
  0
SOLID
  5
A10A
  8
SLD-0
 62
     7
 10
30.8693735176
 20
11.7166513612
 30
0.0
 11
30.889373517599999
 21
11.846651361199999
 31
0.0
 12
30.849373517600011
 22
11.846651361199999
 32
0.0
 13
30.849373517600011
 23
11.846651361199999
 33
0.0
  0
LINE
  5
A10B
  8
SLD-0
 62
     7
 10
30.097594168699999
 20
11.136770349200001
 30
0.0
 11
30.99437351760001
 21
11.136770349200001
 31
0.0
  0
LINE
  5
A10C
  8
SLD-0
 62
     7
 10
29.741594168700001
 20
11.7166513612
 30
0.0
 11
30.99437351760001
 21
11.7166513612
 31
0.0
  0
LINE
  5
A10D
  8
SLD-0
 62
     7
 10
30.8693735176
 20
11.136770349200001
 30
0.0
 11
30.8693735176
 21
10.886770349200001
 31
0.0
  0
LINE
  5
A10E
  8
SLD-0
 62
     7
 10
30.8693735176
 20
11.7166513612
 30
0.0
 11
30.8693735176
 21
11.9666513612
 31
0.0
  0
INSERT
  5
A10F
  8
0
  2
*U71
 10
0.0
 20
0.0
 30
0.0
  0
ENDBLK
  5
A110
  8
0
  0
BLOCK
  8
0
  2
_D_28
 70
     0
 10
0.0
 20
0.0
 30
0.0
  3
_D_28
  1

  0
SOLID
  5
A113
  8
SLD-0
 62
     7
 10
30.8693735176
 20
11.136770349200001
 30
0.0
 11
30.889373517599999
 21
11.2667703492
 31
0.0
 12
30.849373517600011
 22
11.2667703492
 32
0.0
 13
30.849373517600011
 23
11.2667703492
 33
0.0
  0
SOLID
  5
A114
  8
SLD-0
 62
     7
 10
30.8693735176
 20
10.5566513612
 30
0.0
 11
30.849373517600011
 21
10.426651361199999
 31
0.0
 12
30.889373517599999
 22
10.426651361199999
 32
0.0
 13
30.889373517599999
 23
10.426651361199999
 33
0.0
  0
LINE
  5
A115
  8
SLD-0
 62
     7
 10
30.097594168699999
 20
11.136770349200001
 30
0.0
 11
30.99437351760001
 21
11.136770349200001
 31
0.0
  0
LINE
  5
A116
  8
SLD-0
 62
     7
 10
29.741594168700001
 20
10.5566513612
 30
0.0
 11
30.99437351760001
 21
10.5566513612
 31
0.0
  0
LINE
  5
A117
  8
SLD-0
 62
     7
 10
30.8693735176
 20
11.136770349200001
 30
0.0
 11
30.8693735176
 21
11.386770349200001
 31
0.0
  0
LINE
  5
A118
  8
SLD-0
 62
     7
 10
30.8693735176
 20
10.5566513612
 30
0.0
 11
30.8693735176
 21
10.3066513612
 31
0.0
  0
INSERT
  5
A119
  8
0
  2
*U72
 10
0.0
 20
0.0
 30
0.0
  0
ENDBLK
  5
A11A
  8
0
  0
BLOCK
  8
0
  2
_D_32
 70
     0
 10
0.0
 20
0.0
 30
0.0
  3
_D_32
  1

  0
SOLID
  5
A11D
  8
SLD-0
 62
     7
 10
30.8693735176
 20
14.6228893373
 30
0.0
 11
30.849373517600011
 21
14.492889337299999
 31
0.0
 12
30.889373517599999
 22
14.492889337299999
 32
0.0
 13
30.889373517599999
 23
14.492889337299999
 33
0.0
  0
SOLID
  5
A11E
  8
SLD-0
 62
     7
 10
30.8693735176
 20
15.1998893373
 30
0.0
 11
30.889373517599999
 21
15.329889337299999
 31
0.0
 12
30.849373517600011
 22
15.329889337299999
 32
0.0
 13
30.849373517600011
 23
15.329889337299999
 33
0.0
  0
LINE
  5
A11F
  8
SLD-0
 62
     7
 10
29.774500688700002
 20
14.6228893373
 30
0.0
 11
30.99437351760001
 21
14.6228893373
 31
0.0
  0
LINE
  5
A120
  8
SLD-0
 62
     7
 10
30.322000688700001
 20
15.1998893373
 30
0.0
 11
30.99437351760001
 21
15.1998893373
 31
0.0
  0
LINE
  5
A121
  8
SLD-0
 62
     7
 10
30.8693735176
 20
14.6228893373
 30
0.0
 11
30.8693735176
 21
14.3728893373
 31
0.0
  0
LINE
  5
A122
  8
SLD-0
 62
     7
 10
30.8693735176
 20
15.1998893373
 30
0.0
 11
30.8693735176
 21
15.4498893373
 31
0.0
  0
INSERT
  5
A123
  8
0
  2
*U73
 10
0.0
 20
0.0
 30
0.0
  0
ENDBLK
  5
A124
  8
0
  0
BLOCK
  8
0
  2
_D_33
 70
     0
 10
0.0
 20
0.0
 30
0.0
  3
_D_33
  1

  0
SOLID
  5
A127
  8
SLD-0
 62
     7
 10
30.8693735176
 20
14.6228893373
 30
0.0
 11
30.849373517600011
 21
14.492889337299999
 31
0.0
 12
30.889373517599999
 22
14.492889337299999
 32
0.0
 13
30.889373517599999
 23
14.492889337299999
 33
0.0
  0
SOLID
  5
A128
  8
SLD-0
 62
     7
 10
30.8693735176
 20
12.1688893373
 30
0.0
 11
30.889373517599999
 21
12.2988893373
 31
0.0
 12
30.849373517600011
 22
12.2988893373
 32
0.0
 13
30.849373517600011
 23
12.2988893373
 33
0.0
  0
LINE
  5
A129
  8
SLD-0
 62
     7
 10
29.774500688700002
 20
14.6228893373
 30
0.0
 11
30.99437351760001
 21
14.6228893373
 31
0.0
  0
LINE
  5
A12A
  8
SLD-0
 62
     7
 10
29.774500688700002
 20
12.1688893373
 30
0.0
 11
30.99437351760001
 21
12.1688893373
 31
0.0
  0
LINE
  5
A12B
  8
SLD-0
 62
     7
 10
30.8693735176
 20
14.6228893373
 30
0.0
 11
30.8693735176
 21
13.611842705300001
 31
0.0
  0
LINE
  5
A12C
  8
SLD-0
 62
     7
 10
30.8693735176
 20
12.1688893373
 30
0.0
 11
30.8693735176
 21
13.4200024281
 31
0.0
  0
INSERT
  5
A12D
  8
0
  2
*U74
 10
0.0
 20
0.0
 30
0.0
  0
ENDBLK
  5
A12E
  8
0
  0
BLOCK
  8
0
  2
SW_CENTERMARKSYMBOL_6
 70
     0
 10
0.0
 20
0.0
 30
0.0
  3
SW_CENTERMARKSYMBOL_6
  1

  0
LINE
  5
A131
  8
SLD-0
 62
     0
 10
0.0
 20
0.0
 30
0.0
 11
0.0
 21
0.1
 31
0.0
  0
LINE
  5
A132
  8
SLD-0
 62
     0
 10
0.0
 20
0.0
 30
0.0
 11
-0.1
 21
0.0
 31
0.0
  0
LINE
  5
A133
  8
SLD-0
 62
     0
 10
0.0
 20
0.0
 30
0.0
 11
0.0
 21
-0.1
 31
0.0
  0
LINE
  5
A134
  8
SLD-0
 62
     0
 10
0.0
 20
0.0
 30
0.0
 11
0.1
 21
0.0
 31
0.0
  0
LINE
  5
A135
  8
SLD-0
 62
     0
 10
0.0
 20
0.2
 30
0.0
 11
0.0
 21
0.2121042223
 31
0.0
  0
LINE
  5
A136
  8
SLD-0
 62
     0
 10
-0.2
 20
0.0
 30
0.0
 11
-0.2121042223
 21
0.0
 31
0.0
  0
LINE
  5
A137
  8
SLD-0
 62
     0
 10
0.0
 20
-0.2
 30
0.0
 11
0.0
 21
-0.2121042223
 31
0.0
  0
LINE
  5
A138
  8
SLD-0
 62
     0
 10
0.2
 20
0.0
 30
0.0
 11
0.2121042223
 21
0.0
 31
0.0
  0
ENDBLK
  5
A139
  8
0
  0
BLOCK
  8
0
  2
SW_CENTERMARKSYMBOL_7
 70
     0
 10
0.0
 20
0.0
 30
0.0
  3
SW_CENTERMARKSYMBOL_7
  1

  0
LINE
  5
A13C
  8
SLD-0
 62
     0
 10
0.0
 20
0.0
 30
0.0
 11
0.0
 21
0.1
 31
0.0
  0
LINE
  5
A13D
  8
SLD-0
 62
     0
 10
0.0
 20
0.0
 30
0.0
 11
-0.1
 21
0.0
 31
0.0
  0
LINE
  5
A13E
  8
SLD-0
 62
     0
 10
0.0
 20
0.0
 30
0.0
 11
0.0
 21
-0.1
 31
0.0
  0
LINE
  5
A13F
  8
SLD-0
 62
     0
 10
0.0
 20
0.0
 30
0.0
 11
0.1
 21
0.0
 31
0.0
  0
LINE
  5
A140
  8
SLD-0
 62
     0
 10
0.0
 20
0.1
 30
0.0
 11
0.0
 21
0.1675
 31
0.0
  0
LINE
  5
A141
  8
SLD-0
 62
     0
 10
-0.1
 20
0.0
 30
0.0
 11
-0.1675
 21
0.0
 31
0.0
  0
LINE
  5
A142
  8
SLD-0
 62
     0
 10
0.0
 20
-0.1
 30
0.0
 11
0.0
 21
-0.1675
 31
0.0
  0
LINE
  5
A143
  8
SLD-0
 62
     0
 10
0.1
 20
0.0
 30
0.0
 11
0.1675
 21
0.0
 31
0.0
  0
ENDBLK
  5
A144
  8
0
  0
BLOCK
  8
0
  2
SW_CENTERMARKSYMBOL_8
 70
     0
 10
0.0
 20
0.0
 30
0.0
  3
SW_CENTERMARKSYMBOL_8
  1

  0
LINE
  5
A147
  8
SLD-0
 62
     0
 10
0.0
 20
0.0
 30
0.0
 11
0.0
 21
0.1
 31
0.0
  0
LINE
  5
A148
  8
SLD-0
 62
     0
 10
0.0
 20
0.0
 30
0.0
 11
-0.1
 21
0.0
 31
0.0
  0
LINE
  5
A149
  8
SLD-0
 62
     0
 10
0.0
 20
0.0
 30
0.0
 11
0.0
 21
-0.1
 31
0.0
  0
LINE
  5
A14A
  8
SLD-0
 62
     0
 10
0.0
 20
0.0
 30
0.0
 11
0.1
 21
0.0
 31
0.0
  0
LINE
  5
A14B
  8
SLD-0
 62
     0
 10
0.0
 20
0.1
 30
0.0
 11
0.0
 21
0.1675
 31
0.0
  0
LINE
  5
A14C
  8
SLD-0
 62
     0
 10
-0.1
 20
0.0
 30
0.0
 11
-0.1675
 21
0.0
 31
0.0
  0
LINE
  5
A14D
  8
SLD-0
 62
     0
 10
0.0
 20
-0.1
 30
0.0
 11
0.0
 21
-0.1675
 31
0.0
  0
LINE
  5
A14E
  8
SLD-0
 62
     0
 10
0.1
 20
0.0
 30
0.0
 11
0.1675
 21
0.0
 31
0.0
  0
ENDBLK
  5
A14F
  8
0
  0
BLOCK
  8
0
  2
SW_CENTERMARKSYMBOL_9
 70
     0
 10
0.0
 20
0.0
 30
0.0
  3
SW_CENTERMARKSYMBOL_9
  1

  0
LINE
  5
A152
  8
SLD-0
 62
     0
 10
0.0
 20
0.0
 30
0.0
 11
0.0
 21
0.1
 31
0.0
  0
LINE
  5
A153
  8
SLD-0
 62
     0
 10
0.0
 20
0.0
 30
0.0
 11
-0.1
 21
0.0
 31
0.0
  0
LINE
  5
A154
  8
SLD-0
 62
     0
 10
0.0
 20
0.0
 30
0.0
 11
0.0
 21
-0.1
 31
0.0
  0
LINE
  5
A155
  8
SLD-0
 62
     0
 10
0.0
 20
0.0
 30
0.0
 11
0.1
 21
0.0
 31
0.0
  0
LINE
  5
A156
  8
SLD-0
 62
     0
 10
0.0
 20
0.2
 30
0.0
 11
0.0
 21
0.2121042223
 31
0.0
  0
LINE
  5
A157
  8
SLD-0
 62
     0
 10
-0.2
 20
0.0
 30
0.0
 11
-0.2121042223
 21
0.0
 31
0.0
  0
LINE
  5
A158
  8
SLD-0
 62
     0
 10
0.0
 20
-0.2
 30
0.0
 11
0.0
 21
-0.2121042223
 31
0.0
  0
LINE
  5
A159
  8
SLD-0
 62
     0
 10
0.2
 20
0.0
 30
0.0
 11
0.2121042223
 21
0.0
 31
0.0
  0
ENDBLK
  5
A15A
  8
0
  0
BLOCK
  8
0
  2
A$C00266962
 70
     0
 10
0.0
 20
0.0
 30
0.0
  3
A$C00266962
  1

  0
ARC
  5
A3D1
  8
0
  6
CONTINUOUS
 62
     7
 10
0.2500000466074219
 20
0.2020000077529946
 30
0.0
 40
0.1000000000000014
 50
180.0
 51
270.0
  0
LINE
  5
A3D2
  8
0
  6
CONTINUOUS
 62
     7
 10
0.2500000033074201
 20
0.1019999843529948
 30
0.0
 11
0.6900000537074185
 21
0.1019999843529948
 31
0.0
  0
ARC
  5
A3D3
  8
0
  6
CONTINUOUS
 62
     7
 10
0.6900000466074197
 20
0.2020000077529946
 30
0.0
 40
0.0999999999999996
 50
270.0
 51
0.0
  0
LINE
  5
A3D4
  8
0
  6
CONTINUOUS
 62
     7
 10
0.7900000451074192
 20
0.2019999757529938
 30
0.0
 11
0.7900000451074192
 21
1.161999952452994
 31
0.0
  0
LINE
  5
A3D5
  8
0
  6
CONTINUOUS
 62
     7
 10
0.6900000537074185
 20
1.261999943952995
 30
0.0
 11
0.2500000033074201
 21
1.261999943952995
 31
0.0
  0
LINE
  5
A3D6
  8
0
  6
CONTINUOUS
 62
     7
 10
0.1500000118074212
 20
1.161999952452994
 30
0.0
 11
0.1500000118074212
 21
0.2019999757529938
 31
0.0
  0
ARC
  5
A3D7
  8
0
  6
CONTINUOUS
 62
     7
 10
0.2500000466074219
 20
1.1620000077529931
 30
0.0
 40
0.1000000000000014
 50
90.0
 51
180.0
  0
ARC
  5
A3D8
  8
0
  6
CONTINUOUS
 62
     7
 10
0.6900000466074197
 20
1.1620000077529931
 30
0.0
 40
0.0999999999999996
 50
0.0
 51
90.0
  0
ARC
  5
A3D9
  8
0
  6
HIDDEN
 62
     7
 10
0.1440000466074203
 20
1.2642379838529949
 30
0.0
 40
0.1000000000000014
 50
90.0
 51
180.0
  0
LINE
  5
A3DA
  8
0
  6
HIDDEN
 62
     7
 10
0.04400010300742
 20
0.1000000607529952
 30
0.0
 11
0.04400010300742
 21
1.2642380513529949
 31
0.0
  0
ARC
  5
A3DB
  8
0
  6
HIDDEN
 62
     7
 10
0.1440000466074203
 20
0.1000000077529943
 30
0.0
 40
0.1000000000000014
 50
180.0
 51
270.0
  0
LINE
  5
A3DC
  8
0
  6
HIDDEN
 62
     7
 10
0.7959235501074211
 20
-0.0000000040470045
 30
0.0
 11
0.1440000945074189
 21
-0.0000000040470045
 31
0.0
  0
ARC
  5
A3DD
  8
0
  6
HIDDEN
 62
     7
 10
0.7959235248074208
 20
0.1000000077529943
 30
0.0
 40
0.1000000000000014
 50
270.0
 51
0.0
  0
LINE
  5
A3DE
  8
0
  6
HIDDEN
 62
     7
 10
0.8959235415074218
 20
1.2642380513529949
 30
0.0
 11
0.8959235415074218
 21
0.1000000607529952
 31
0.0
  0
ARC
  5
A3DF
  8
0
  6
HIDDEN
 62
     7
 10
0.7959235248074208
 20
1.2642379838529949
 30
0.0
 40
0.1000000000000014
 50
0.0
 51
90.0
  0
LINE
  5
A3E0
  8
0
  6
HIDDEN
 62
     7
 10
0.1440000945074189
 20
1.3642380428529961
 30
0.0
 11
0.7959235501074211
 21
1.3642380428529961
 31
0.0
  0
LINE
  5
A3E1
  8
SLD-0
  6
CENTERX2
 62
     7
 10
0.0000000466074219
 20
0.6820000077529933
 30
0.0
 11
0.9400000466074197
 21
0.6820000077529933
 31
0.0
  0
ENDBLK
  5
A3E3
  8
0
  0
BLOCK
  8
0
  2
SW_CENTERMARKSYMBOL_0
 70
     0
 10
0.0
 20
0.0
 30
0.0
  3
SW_CENTERMARKSYMBOL_0
  1

  0
LINE
  5
A3E6
  8
SLD-0
 62
     0
 10
0.0
 20
0.0
 30
0.0
 11
0.0
 21
0.1
 31
0.0
  0
LINE
  5
A3E7
  8
SLD-0
 62
     0
 10
0.0
 20
0.0
 30
0.0
 11
-0.1
 21
0.0
 31
0.0
  0
LINE
  5
A3E8
  8
SLD-0
 62
     0
 10
0.0
 20
0.0
 30
0.0
 11
0.0
 21
-0.1
 31
0.0
  0
LINE
  5
A3E9
  8
SLD-0
 62
     0
 10
0.0
 20
0.0
 30
0.0
 11
0.1
 21
0.0
 31
0.0
  0
LINE
  5
A3EA
  8
SLD-0
 62
     0
 10
0.0
 20
0.2
 30
0.0
 11
0.0
 21
0.2121042223
 31
0.0
  0
LINE
  5
A3EB
  8
SLD-0
 62
     0
 10
-0.2
 20
0.0
 30
0.0
 11
-0.2121042223
 21
0.0
 31
0.0
  0
LINE
  5
A3EC
  8
SLD-0
 62
     0
 10
0.0
 20
-0.2
 30
0.0
 11
0.0
 21
-0.2121042223
 31
0.0
  0
LINE
  5
A3ED
  8
SLD-0
 62
     0
 10
0.2
 20
0.0
 30
0.0
 11
0.2121042223
 21
0.0
 31
0.0
  0
ENDBLK
  5
A3EE
  8
0
  0
BLOCK
  8
0
  2
SW_CENTERMARKSYMBOL_1
 70
     0
 10
0.0
 20
0.0
 30
0.0
  3
SW_CENTERMARKSYMBOL_1
  1

  0
LINE
  5
A3F1
  8
SLD-0
 62
     0
 10
0.0
 20
0.0
 30
0.0
 11
0.0
 21
0.1
 31
0.0
  0
LINE
  5
A3F2
  8
SLD-0
 62
     0
 10
0.0
 20
0.0
 30
0.0
 11
-0.1
 21
0.0
 31
0.0
  0
LINE
  5
A3F3
  8
SLD-0
 62
     0
 10
0.0
 20
0.0
 30
0.0
 11
0.0
 21
-0.1
 31
0.0
  0
LINE
  5
A3F4
  8
SLD-0
 62
     0
 10
0.0
 20
0.0
 30
0.0
 11
0.1
 21
0.0
 31
0.0
  0
LINE
  5
A3F5
  8
SLD-0
 62
     0
 10
0.0
 20
0.1
 30
0.0
 11
0.0
 21
0.1675
 31
0.0
  0
LINE
  5
A3F6
  8
SLD-0
 62
     0
 10
-0.1
 20
0.0
 30
0.0
 11
-0.1675
 21
0.0
 31
0.0
  0
LINE
  5
A3F7
  8
SLD-0
 62
     0
 10
0.0
 20
-0.1
 30
0.0
 11
0.0
 21
-0.1675
 31
0.0
  0
LINE
  5
A3F8
  8
SLD-0
 62
     0
 10
0.1
 20
0.0
 30
0.0
 11
0.1675
 21
0.0
 31
0.0
  0
ENDBLK
  5
A3F9
  8
0
  0
BLOCK
  8
0
  2
SW_CENTERMARKSYMBOL_2
 70
     0
 10
0.0
 20
0.0
 30
0.0
  3
SW_CENTERMARKSYMBOL_2
  1

  0
LINE
  5
A3FC
  8
SLD-0
 62
     0
 10
0.0
 20
0.0
 30
0.0
 11
0.0
 21
0.1
 31
0.0
  0
LINE
  5
A3FD
  8
SLD-0
 62
     0
 10
0.0
 20
0.0
 30
0.0
 11
-0.1
 21
0.0
 31
0.0
  0
LINE
  5
A3FE
  8
SLD-0
 62
     0
 10
0.0
 20
0.0
 30
0.0
 11
0.0
 21
-0.1
 31
0.0
  0
LINE
  5
A3FF
  8
SLD-0
 62
     0
 10
0.0
 20
0.0
 30
0.0
 11
0.1
 21
0.0
 31
0.0
  0
LINE
  5
A400
  8
SLD-0
 62
     0
 10
0.0
 20
0.1
 30
0.0
 11
0.0
 21
0.1675
 31
0.0
  0
LINE
  5
A401
  8
SLD-0
 62
     0
 10
-0.1
 20
0.0
 30
0.0
 11
-0.1675
 21
0.0
 31
0.0
  0
LINE
  5
A402
  8
SLD-0
 62
     0
 10
0.0
 20
-0.1
 30
0.0
 11
0.0
 21
-0.1675
 31
0.0
  0
LINE
  5
A403
  8
SLD-0
 62
     0
 10
0.1
 20
0.0
 30
0.0
 11
0.1675
 21
0.0
 31
0.0
  0
ENDBLK
  5
A404
  8
0
  0
BLOCK
  8
0
  2
SW_CENTERMARKSYMBOL_3
 70
     0
 10
0.0
 20
0.0
 30
0.0
  3
SW_CENTERMARKSYMBOL_3
  1

  0
LINE
  5
A407
  8
SLD-0
 62
     0
 10
0.0
 20
0.0
 30
0.0
 11
0.0
 21
0.1
 31
0.0
  0
LINE
  5
A408
  8
SLD-0
 62
     0
 10
0.0
 20
0.0
 30
0.0
 11
-0.1
 21
0.0
 31
0.0
  0
LINE
  5
A409
  8
SLD-0
 62
     0
 10
0.0
 20
0.0
 30
0.0
 11
0.0
 21
-0.1
 31
0.0
  0
LINE
  5
A40A
  8
SLD-0
 62
     0
 10
0.0
 20
0.0
 30
0.0
 11
0.1
 21
0.0
 31
0.0
  0
LINE
  5
A40B
  8
SLD-0
 62
     0
 10
0.0
 20
0.2
 30
0.0
 11
0.0
 21
0.2121042223
 31
0.0
  0
LINE
  5
A40C
  8
SLD-0
 62
     0
 10
-0.2
 20
0.0
 30
0.0
 11
-0.2121042223
 21
0.0
 31
0.0
  0
LINE
  5
A40D
  8
SLD-0
 62
     0
 10
0.0
 20
-0.2
 30
0.0
 11
0.0
 21
-0.2121042223
 31
0.0
  0
LINE
  5
A40E
  8
SLD-0
 62
     0
 10
0.2
 20
0.0
 30
0.0
 11
0.2121042223
 21
0.0
 31
0.0
  0
ENDBLK
  5
A40F
  8
0
  0
BLOCK
  8
0
  2
A$C63EB23D7
 70
     0
 10
0.0
 20
0.0
 30
0.0
  3
A$C63EB23D7
  1

  0
INSERT
  5
A576
  8
0
  2
*U79
 10
0.0
 20
0.0
 30
0.0
1001
ACAD_MLEADERVER
1070
     2
  0
INSERT
  5
A577
  8
0
  2
*U80
 10
0.0
 20
0.0
 30
0.0
  0
ENDBLK
  5
A57B
  8
0
  0
BLOCK
  8
0
  2
A$C749F601D
 70
     0
 10
0.0
 20
0.0
 30
0.0
  3
A$C749F601D
  1

  0
INSERT
  5
A57D
  8
0
  2
*U81
 10
0.0
 20
0.0
 30
0.0
1001
ACAD_MLEADERVER
1070
     2
  0
INSERT
  5
A57E
  8
0
  2
*U82
 10
0.0
 20
0.0
 30
0.0
  0
ENDBLK
  5
A582
  8
0
  0
BLOCK
  8
0
  2
*U21
 70
     1
 10
0.0
 20
0.0
 30
0.0
  3
*U21
  1

  0
TEXT
  5
A60E
  8
0
 10
20.394813615906191
 20
15.878783282013449
 30
0.0
 40
0.1
  1
ALTINEX, INC. MODEL NUMBERS:
  7
ROMANT
  0
ENDBLK
  5
A610
  8
0
  0
BLOCK
  8
0
  2
*U22
 70
     1
 10
0.0
 20
0.0
 30
0.0
  3
*U22
  1

  0
TEXT
  5
A612
  8
0
 10
15.69169190970471
 20
14.803041135580489
 30
0.0
 40
0.28
  1
1. STOP          2. MEASURE           3. CUT
  7
ROMANT
  0
ENDBLK
  5
A614
  8
0
  0
BLOCK
  8
0
  2
*U23
 70
     1
 10
0.0
 20
0.0
 30
0.0
  3
*U23
  1

  0
TEXT
  5
A616
  8
0
 10
15.69169190970471
 20
23.941821533943479
 30
0.0
 40
0.28
  1
1. STOP          2. MEASURE           3. CUT
  7
ROMANT
  0
ENDBLK
  5
A618
  8
0
  0
BLOCK
  8
0
  2
*U24
 70
     1
 10
0.0
 20
0.0
 30
0.0
  3
*U24
  1

  0
TEXT
  5
A61A
  8
0
 10
15.875726197662511
 20
16.653083997971869
 30
0.0
 40
0.1
  1
ALTINEX, INC. IS NOT RESPONSIBLE
  7
ROMANT
  0
TEXT
  5
A61B
  8
0
 10
15.86726780748516
 20
16.484712010704929
 30
0.0
 40
0.1
  1
FOR ANY DAMAGE TO WALL.
  7
ROMANT
  0
ENDBLK
  5
A61D
  8
0
  0
BLOCK
  8
0
  2
*U25
 70
     1
 10
0.0
 20
0.0
 30
0.0
  3
*U25
  1

  0
SOLID
  5
A61F
  8
0
  6
CONTINUOUS
 10
17.192856217601001
 20
16.012044285832999
 30
0.0
 11
17.18388707698622
 21
15.967552304488009
 31
0.0
 12
17.372857627158261
 22
15.967552304488009
 32
0.0
 13
17.372857627158261
 23
15.967552304488009
 33
0.0
  0
SOLID
  5
A620
  8
0
  6
CONTINUOUS
 10
-17.192856217601001
 20
16.012044285832999
 30
0.0
 11
-17.384996005302281
 21
16.012044285832999
 31
0.0
 12
-17.372857627158261
 22
15.967552304488009
 32
0.0
 13
-17.372857627158261
 23
15.967552304488009
 33
0.0
210
0.0
220
0.0
230
-1.0
  0
SOLID
  5
A621
  8
0
  6
CONTINUOUS
 10
16.592149223962078
 20
16.012044285832999
 30
0.0
 11
16.586081394170929
 21
15.967552304488009
 31
0.0
 12
16.788336950085881
 22
15.967552304488009
 32
0.0
 13
16.788336950085881
 23
15.967552304488009
 33
0.0
210
0.0
220
0.0
230
1.0
  0
SOLID
  5
A622
  8
0
  6
CONTINUOUS
 10
-16.592149223962078
 20
16.012044285832999
 30
0.0
 11
-16.79642738980742
 21
16.012044285832999
 31
0.0
 12
-16.788336950085881
 22
15.967552304488009
 32
0.0
 13
-16.788336950085881
 23
15.967552304488009
 33
0.0
210
0.0
220
0.0
230
-1.0
  0
SOLID
  5
A623
  8
0
  6
CONTINUOUS
 10
16.224031498070431
 20
16.012044285832999
 30
0.0
 11
16.194400195093639
 21
15.95743925483608
 31
0.0
 12
16.29722828271839
 22
15.95743925483608
 32
0.0
 13
16.29722828271839
 23
15.95743925483608
 33
0.0
210
0.0
220
0.0
230
1.0
  0
SOLID
  5
A624
  8
0
  6
CONTINUOUS
 10
-16.224031498070431
 20
16.012044285832999
 30
0.0
 11
-16.288763171527911
 21
16.012044285832999
 31
0.0
 12
-16.29722828271839
 22
15.95743925483608
 32
0.0
 13
-16.29722828271839
 23
15.95743925483608
 33
0.0
210
0.0
220
0.0
230
-1.0
  0
SOLID
  5
A625
  8
0
  6
CONTINUOUS
 10
15.948964703223369
 20
16.012044285832999
 30
0.0
 11
15.9166083814607
 21
15.949346096552819
 31
0.0
 12
16.12290915723641
 22
15.949346096552819
 32
0.0
 13
16.12290915723641
 23
15.949346096552819
 33
0.0
210
0.0
220
0.0
230
1.0
  0
SOLID
  5
A626
  8
0
  6
CONTINUOUS
 10
-15.948964703223369
 20
16.012044285832999
 30
0.0
 11
-16.155265478999091
 21
16.012044285832999
 31
0.0
 12
-16.12290915723641
 22
15.949346096552819
 32
0.0
 13
-16.12290915723641
 23
15.949346096552819
 33
0.0
210
0.0
220
0.0
230
-1.0
  0
SOLID
  5
A627
  8
0
  6
CONTINUOUS
 10
16.931939536581432
 20
16.012044285832999
 30
0.0
 11
16.914159528264332
 21
15.92709466875686
 31
0.0
 12
17.01576841234376
 22
15.92709466875686
 32
0.0
 13
17.01576841234376
 23
15.92709466875686
 33
0.0
210
0.0
220
0.0
230
1.0
  0
SOLID
  5
A628
  8
0
  6
CONTINUOUS
 10
-16.931939536581432
 20
16.012044285832999
 30
0.0
 11
-16.98452195764796
 21
16.012044285832999
 31
0.0
 12
-17.01576841234376
 22
15.92709466875686
 32
0.0
 13
-17.01576841234376
 23
15.92709466875686
 33
0.0
210
0.0
220
0.0
230
-1.0
  0
SOLID
  5
A629
  8
0
  6
CONTINUOUS
 10
16.96430401402931
 20
15.92709466875686
 30
0.0
 11
16.969670380464791
 21
15.912947273491101
 31
0.0
 12
17.020972154990879
 22
15.912947273491101
 32
0.0
 13
17.020972154990879
 23
15.912947273491101
 33
0.0
  0
SOLID
  5
A62A
  8
0
  6
CONTINUOUS
 10
-16.96430401402931
 20
15.92709466875686
 30
0.0
 11
-17.01576841234376
 21
15.92709466875686
 31
0.0
 12
-17.020972154990879
 22
15.912947273491101
 32
0.0
 13
-17.020972154990879
 23
15.912947273491101
 33
0.0
210
0.0
220
0.0
230
-1.0
  0
SOLID
  5
A62B
  8
0
  6
CONTINUOUS
 10
16.914159528264332
 20
15.92709466875686
 30
0.0
 11
16.911198469531541
 21
15.912947273491101
 31
0.0
 12
16.961538972466499
 22
15.912947273491101
 32
0.0
 13
16.961538972466499
 23
15.912947273491101
 33
0.0
  0
SOLID
  5
A62C
  8
0
  6
CONTINUOUS
 10
-16.914159528264332
 20
15.92709466875686
 30
0.0
 11
-16.96430401402931
 21
15.92709466875686
 31
0.0
 12
-16.961538972466499
 22
15.912947273491101
 32
0.0
 13
-16.961538972466499
 23
15.912947273491101
 33
0.0
210
0.0
220
0.0
230
-1.0
  0
SOLID
  5
A62D
  8
0
  6
CONTINUOUS
 10
17.18388707698622
 20
15.967552304488009
 30
0.0
 11
17.171655484087449
 21
15.906876725138209
 31
0.0
 12
17.223187210871551
 22
15.906876725138209
 32
0.0
 13
17.223187210871551
 23
15.906876725138209
 33
0.0
210
0.0
220
0.0
230
1.0
  0
SOLID
  5
A62E
  8
0
  6
CONTINUOUS
 10
-17.18388707698622
 20
15.967552304488009
 30
0.0
 11
-17.235325589015599
 21
15.967552304488009
 31
0.0
 12
-17.223187210871551
 22
15.906876725138209
 32
0.0
 13
-17.223187210871551
 23
15.906876725138209
 33
0.0
210
0.0
220
0.0
230
-1.0
  0
SOLID
  5
A62F
  8
0
  6
CONTINUOUS
 10
17.171655484087449
 20
15.906876725138209
 30
0.0
 11
17.163091889363841
 21
15.86439647947668
 31
0.0
 12
17.35263152785442
 22
15.86439647947668
 32
0.0
 13
17.35263152785442
 23
15.86439647947668
 33
0.0
210
0.0
220
0.0
230
1.0
  0
SOLID
  5
A630
  8
0
  6
CONTINUOUS
 10
-17.171655484087449
 20
15.906876725138209
 30
0.0
 11
-17.36274457750633
 21
15.906876725138209
 31
0.0
 12
-17.35263152785442
 22
15.86439647947668
 32
0.0
 13
-17.35263152785442
 23
15.86439647947668
 33
0.0
210
0.0
220
0.0
230
-1.0
  0
SOLID
  5
A631
  8
0
  6
CONTINUOUS
 10
17.08363256279852
 20
16.012044285832999
 30
0.0
 11
17.052008329751381
 21
15.85023820996399
 31
0.0
 12
17.102350556324659
 22
15.85023820996399
 32
0.0
 13
17.102350556324659
 23
15.85023820996399
 33
0.0
210
0.0
220
0.0
230
1.0
  0
SOLID
  5
A632
  8
0
  6
CONTINUOUS
 10
-17.08363256279852
 20
16.012044285832999
 30
0.0
 11
-17.136214983865042
 21
16.012044285832999
 31
0.0
 12
-17.102350556324659
 22
15.85023820996399
 32
0.0
 13
-17.102350556324659
 23
15.85023820996399
 33
0.0
210
0.0
220
0.0
230
-1.0
  0
SOLID
  5
A633
  8
0
  6
CONTINUOUS
 10
16.969670380464791
 20
15.912947273491101
 30
0.0
 11
16.993457078114101
 21
15.85023820996399
 31
0.0
 12
17.044038014260849
 22
15.85023820996399
 32
0.0
 13
17.044038014260849
 23
15.85023820996399
 33
0.0
210
0.0
220
0.0
230
1.0
  0
SOLID
  5
A634
  8
0
  6
CONTINUOUS
 10
-16.969670380464791
 20
15.912947273491101
 30
0.0
 11
-17.020972154990879
 21
15.912947273491101
 31
0.0
 12
-17.044038014260849
 22
15.85023820996399
 32
0.0
 13
-17.044038014260849
 23
15.85023820996399
 33
0.0
210
0.0
220
0.0
230
-1.0
  0
SOLID
  5
A635
  8
0
  6
CONTINUOUS
 10
16.250328145727149
 20
15.95743925483608
 30
0.0
 11
16.264489133801579
 21
15.85023820996399
 31
0.0
 12
16.313847058461391
 22
15.85023820996399
 32
0.0
 13
16.313847058461391
 23
15.85023820996399
 33
0.0
210
0.0
220
0.0
230
1.0
  0
SOLID
  5
A636
  8
0
  6
CONTINUOUS
 10
-16.250328145727149
 20
15.95743925483608
 30
0.0
 11
-16.29722828271839
 21
15.95743925483608
 31
0.0
 12
-16.313847058461391
 22
15.85023820996399
 32
0.0
 13
-16.313847058461391
 23
15.85023820996399
 33
0.0
210
0.0
220
0.0
230
-1.0
  0
SOLID
  5
A637
  8
0
  6
CONTINUOUS
 10
16.194400195093639
 20
15.95743925483608
 30
0.0
 11
16.13622777797308
 21
15.85023820996399
 31
0.0
 12
16.191675176307729
 22
15.85023820996399
 32
0.0
 13
16.191675176307729
 23
15.85023820996399
 33
0.0
  0
SOLID
  5
A638
  8
0
  6
CONTINUOUS
 10
-16.194400195093639
 20
15.95743925483608
 30
0.0
 11
-16.250328145727149
 21
15.95743925483608
 31
0.0
 12
-16.191675176307729
 22
15.85023820996399
 32
0.0
 13
-16.191675176307729
 23
15.85023820996399
 33
0.0
210
0.0
220
0.0
230
-1.0
  0
SOLID
  5
A639
  8
0
  6
CONTINUOUS
 10
15.898402173525501
 20
15.912947273491101
 30
0.0
 11
15.86199247621685
 21
15.85023820996399
 31
0.0
 12
16.068301407677779
 22
15.85023820996399
 32
0.0
 13
16.068301407677779
 23
15.85023820996399
 33
0.0
210
0.0
220
0.0
230
1.0
  0
SOLID
  5
A63A
  8
0
  6
CONTINUOUS
 10
-15.898402173525501
 20
15.912947273491101
 30
0.0
 11
-16.10470294930122
 21
15.912947273491101
 31
0.0
 12
-16.068301407677779
 22
15.85023820996399
 32
0.0
 13
-16.068301407677779
 23
15.85023820996399
 33
0.0
210
0.0
220
0.0
230
-1.0
  0
SOLID
  5
A63B
  8
0
  6
CONTINUOUS
 10
17.052008329751381
 20
15.85023820996399
 30
0.0
 11
17.049242756858511
 21
15.836088096136489
 31
0.0
 12
17.099389076035202
 22
15.836088096136489
 32
0.0
 13
17.099389076035202
 23
15.836088096136489
 33
0.0
210
0.0
220
0.0
230
1.0
  0
SOLID
  5
A63C
  8
0
  6
CONTINUOUS
 10
-17.052008329751381
 20
15.85023820996399
 30
0.0
 11
-17.102350556324659
 21
15.85023820996399
 31
0.0
 12
-17.099389076035202
 22
15.836088096136489
 32
0.0
 13
-17.099389076035202
 23
15.836088096136489
 33
0.0
210
0.0
220
0.0
230
-1.0
  0
SOLID
  5
A63D
  8
0
  6
CONTINUOUS
 10
16.993457078114101
 20
15.85023820996399
 30
0.0
 11
16.998824475749888
 21
15.836088096136489
 31
0.0
 12
17.049242756858511
 22
15.836088096136489
 32
0.0
 13
17.049242756858511
 23
15.836088096136489
 33
0.0
210
0.0
220
0.0
230
1.0
  0
SOLID
  5
A63E
  8
0
  6
CONTINUOUS
 10
-16.993457078114101
 20
15.85023820996399
 30
0.0
 11
-17.044038014260849
 21
15.85023820996399
 31
0.0
 12
-17.049242756858511
 22
15.836088096136489
 32
0.0
 13
-17.049242756858511
 23
15.836088096136489
 33
0.0
210
0.0
220
0.0
230
-1.0
  0
SOLID
  5
A63F
  8
0
  6
CONTINUOUS
 10
16.13622777797308
 20
15.85023820996399
 30
0.0
 11
16.11318186464522
 21
15.807768838549389
 31
0.0
 12
16.32043084652361
 22
15.807768838549389
 32
0.0
 13
16.32043084652361
 23
15.807768838549389
 33
0.0
210
0.0
220
0.0
230
1.0
  0
SOLID
  5
A640
  8
0
  6
CONTINUOUS
 10
-16.13622777797308
 20
15.85023820996399
 30
0.0
 11
-16.313847058461391
 21
15.85023820996399
 31
0.0
 12
-16.32043084652361
 22
15.807768838549389
 32
0.0
 13
-16.32043084652361
 23
15.807768838549389
 33
0.0
210
0.0
220
0.0
230
-1.0
  0
SOLID
  5
A641
  8
0
  6
CONTINUOUS
 10
17.163091889363841
 20
15.86439647947668
 30
0.0
 11
17.148821606309451
 21
15.79360785047497
 31
0.0
 12
17.198913173145218
 22
15.79360785047497
 32
0.0
 13
17.198913173145218
 23
15.79360785047497
 33
0.0
210
0.0
220
0.0
230
1.0
  0
SOLID
  5
A642
  8
0
  6
CONTINUOUS
 10
-17.163091889363841
 20
15.86439647947668
 30
0.0
 11
-17.215096771150019
 21
15.86439647947668
 31
0.0
 12
-17.198913173145218
 22
15.79360785047497
 32
0.0
 13
-17.198913173145218
 23
15.79360785047497
 33
0.0
210
0.0
220
0.0
230
-1.0
  0
SOLID
  5
A643
  8
0
  6
CONTINUOUS
 10
16.41618216001865
 20
16.012044285832999
 30
0.0
 11
16.370463276625198
 21
15.79360785047497
 31
0.0
 12
16.422249989809821
 22
15.79360785047497
 32
0.0
 13
16.422249989809821
 23
15.79360785047497
 33
0.0
210
0.0
220
0.0
230
1.0
  0
SOLID
  5
A644
  8
0
  6
CONTINUOUS
 10
-16.41618216001865
 20
16.012044285832999
 30
0.0
 11
-16.468767299646931
 21
16.012044285832999
 31
0.0
 12
-16.422249989809821
 22
15.79360785047497
 32
0.0
 13
-16.422249989809821
 23
15.79360785047497
 33
0.0
210
0.0
220
0.0
230
-1.0
  0
SOLID
  5
A645
  8
0
  6
CONTINUOUS
 10
17.148821606309451
 20
15.79360785047497
 30
0.0
 11
17.140260203725791
 21
15.751138479060369
 31
0.0
 12
17.340504023957308
 22
15.751138479060369
 32
0.0
 13
17.340504023957308
 23
15.751138479060369
 33
0.0
210
0.0
220
0.0
230
1.0
  0
SOLID
  5
A646
  8
0
  6
CONTINUOUS
 10
-17.148821606309451
 20
15.79360785047497
 30
0.0
 11
-17.35263152785442
 21
15.79360785047497
 31
0.0
 12
-17.340504023957308
 22
15.751138479060369
 32
0.0
 13
-17.340504023957308
 23
15.751138479060369
 33
0.0
210
0.0
220
0.0
230
-1.0
  0
SOLID
  5
A647
  8
0
  6
CONTINUOUS
 10
16.998824475749888
 20
15.836088096136489
 30
0.0
 11
17.031047423170261
 21
15.751138479060369
 31
0.0
 12
17.081609952868121
 22
15.751138479060369
 32
0.0
 13
17.081609952868121
 23
15.751138479060369
 33
0.0
210
0.0
220
0.0
230
1.0
  0
SOLID
  5
A648
  8
0
  6
CONTINUOUS
 10
-16.998824475749888
 20
15.836088096136489
 30
0.0
 11
-17.099389076035202
 21
15.836088096136489
 31
0.0
 12
-17.081609952868121
 22
15.751138479060369
 32
0.0
 13
-17.081609952868121
 23
15.751138479060369
 33
0.0
210
0.0
220
0.0
230
-1.0
  0
SOLID
  5
A649
  8
0
  6
CONTINUOUS
 10
16.911198469531541
 20
15.912947273491101
 30
0.0
 11
16.87733178702279
 21
15.751138479060369
 31
0.0
 12
16.929914208089318
 22
15.751138479060369
 32
0.0
 13
16.929914208089318
 23
15.751138479060369
 33
0.0
210
0.0
220
0.0
230
1.0
  0
SOLID
  5
A64A
  8
0
  6
CONTINUOUS
 10
-16.911198469531541
 20
15.912947273491101
 30
0.0
 11
-16.961538972466499
 21
15.912947273491101
 31
0.0
 12
-16.929914208089318
 22
15.751138479060369
 32
0.0
 13
-16.929914208089318
 23
15.751138479060369
 33
0.0
210
0.0
220
0.0
230
-1.0
  0
SOLID
  5
A64B
  8
0
  6
CONTINUOUS
 10
16.82878371157009
 20
16.012044285832999
 30
0.0
 11
16.776198571941851
 21
15.751138479060369
 31
0.0
 12
16.824735773147591
 22
15.751138479060369
 32
0.0
 13
16.824735773147591
 23
15.751138479060369
 33
0.0
210
0.0
220
0.0
230
1.0
  0
SOLID
  5
A64C
  8
0
  6
CONTINUOUS
 10
-16.82878371157009
 20
16.012044285832999
 30
0.0
 11
-16.881377006883572
 21
16.012044285832999
 31
0.0
 12
-16.824735773147591
 22
15.751138479060369
 32
0.0
 13
-16.824735773147591
 23
15.751138479060369
 33
0.0
210
0.0
220
0.0
230
-1.0
  0
SOLID
  5
A64D
  8
0
  6
CONTINUOUS
 10
16.658895351664771
 20
15.967552304488009
 30
0.0
 11
16.614389777511111
 21
15.751138479060369
 31
0.0
 12
16.66496318145591
 22
15.751138479060369
 32
0.0
 13
16.66496318145591
 23
15.751138479060369
 33
0.0
210
0.0
220
0.0
230
1.0
  0
SOLID
  5
A64E
  8
0
  6
CONTINUOUS
 10
-16.658895351664771
 20
15.967552304488009
 30
0.0
 11
-16.7094551628009
 21
15.967552304488009
 31
0.0
 12
-16.66496318145591
 22
15.751138479060369
 32
0.0
 13
-16.66496318145591
 23
15.751138479060369
 33
0.0
210
0.0
220
0.0
230
-1.0
  0
SOLID
  5
A64F
  8
0
  6
CONTINUOUS
 10
16.370463276625198
 20
15.79360785047497
 30
0.0
 11
16.361574410460008
 21
15.751138479060369
 31
0.0
 12
16.549668978300531
 22
15.751138479060369
 32
0.0
 13
16.549668978300531
 23
15.751138479060369
 33
0.0
210
0.0
220
0.0
230
1.0
  0
SOLID
  5
A650
  8
0
  6
CONTINUOUS
 10
-16.370463276625198
 20
15.79360785047497
 30
0.0
 11
-16.561807356444579
 21
15.79360785047497
 31
0.0
 12
-16.549668978300531
 22
15.751138479060369
 32
0.0
 13
-16.549668978300531
 23
15.751138479060369
 33
0.0
210
0.0
220
0.0
230
-1.0
  0
SOLID
  5
A651
  8
0
  6
CONTINUOUS
 10
16.270556963592728
 20
15.807768838549389
 30
0.0
 11
16.27864740331427
 21
15.751138479060369
 31
0.0
 12
16.329209933012141
 22
15.751138479060369
 32
0.0
 13
16.329209933012141
 23
15.751138479060369
 33
0.0
210
0.0
220
0.0
230
1.0
  0
SOLID
  5
A652
  8
0
  6
CONTINUOUS
 10
-16.270556963592728
 20
15.807768838549389
 30
0.0
 11
-16.32043084652361
 21
15.807768838549389
 31
0.0
 12
-16.329209933012141
 22
15.751138479060369
 32
0.0
 13
-16.329209933012141
 23
15.751138479060369
 33
0.0
210
0.0
220
0.0
230
-1.0
  0
SOLID
  5
A653
  8
0
  6
CONTINUOUS
 10
16.11318186464522
 20
15.807768838549389
 30
0.0
 11
16.082451521505249
 21
15.751138479060369
 31
0.0
 12
16.141115365171601
 22
15.751138479060369
 32
0.0
 13
16.141115365171601
 23
15.751138479060369
 33
0.0
  0
SOLID
  5
A654
  8
0
  6
CONTINUOUS
 10
-16.11318186464522
 20
15.807768838549389
 30
0.0
 11
-16.169423748511779
 21
15.807768838549389
 31
0.0
 12
-16.141115365171601
 22
15.751138479060369
 32
0.0
 13
-16.141115365171601
 23
15.751138479060369
 33
0.0
210
0.0
220
0.0
230
-1.0
  0
SOLID
  5
A655
  8
0
  6
CONTINUOUS
 10
15.84379714252859
 20
15.81383666834054
 30
0.0
 11
15.80940733658859
 21
15.751138479060369
 31
0.0
 12
16.013685502433919
 22
15.751138479060369
 32
0.0
 13
16.013685502433919
 23
15.751138479060369
 33
0.0
210
0.0
220
0.0
230
1.0
  0
SOLID
  5
A656
  8
0
  6
CONTINUOUS
 10
-15.84379714252859
 20
15.81383666834054
 30
0.0
 11
-16.050097918304321
 21
15.81383666834054
 31
0.0
 12
-16.013685502433919
 22
15.751138479060369
 32
0.0
 13
-16.013685502433919
 23
15.751138479060369
 33
0.0
210
0.0
220
0.0
230
-1.0
  0
LINE
  5
A657
  8
0
  6
CONTINUOUS
 10
17.192856217601001
 20
16.012044285832999
 30
0.0
 11
17.18388707698622
 21
15.967552304488009
 31
0.0
  0
LINE
  5
A658
  8
0
  6
CONTINUOUS
 10
17.384996005302281
 20
16.012044285832999
 30
0.0
 11
17.372857627158261
 21
15.967552304488009
 31
0.0
  0
LINE
  5
A659
  8
0
  6
CONTINUOUS
 10
16.592149223962078
 20
16.012044285832999
 30
0.0
 11
16.586081394170929
 21
15.967552304488009
 31
0.0
  0
LINE
  5
A65A
  8
0
  6
CONTINUOUS
 10
16.79642738980742
 20
16.012044285832999
 30
0.0
 11
16.788336950085881
 21
15.967552304488009
 31
0.0
  0
LINE
  5
A65B
  8
0
  6
CONTINUOUS
 10
16.224031498070431
 20
16.012044285832999
 30
0.0
 11
16.194400195093639
 21
15.95743925483608
 31
0.0
  0
LINE
  5
A65C
  8
0
  6
CONTINUOUS
 10
16.288763171527911
 20
16.012044285832999
 30
0.0
 11
16.29722828271839
 21
15.95743925483608
 31
0.0
  0
LINE
  5
A65D
  8
0
  6
CONTINUOUS
 10
15.948964703223369
 20
16.012044285832999
 30
0.0
 11
15.9166083814607
 21
15.949346096552819
 31
0.0
  0
LINE
  5
A65E
  8
0
  6
CONTINUOUS
 10
16.155265478999091
 20
16.012044285832999
 30
0.0
 11
16.12290915723641
 21
15.949346096552819
 31
0.0
  0
LINE
  5
A65F
  8
0
  6
CONTINUOUS
 10
16.931939536581432
 20
16.012044285832999
 30
0.0
 11
16.914159528264332
 21
15.92709466875686
 31
0.0
  0
LINE
  5
A660
  8
0
  6
CONTINUOUS
 10
16.98452195764796
 20
16.012044285832999
 30
0.0
 11
17.01576841234376
 21
15.92709466875686
 31
0.0
  0
LINE
  5
A661
  8
0
  6
CONTINUOUS
 10
17.01576841234376
 20
15.92709466875686
 30
0.0
 11
17.020972154990879
 21
15.912947273491101
 31
0.0
  0
LINE
  5
A662
  8
0
  6
CONTINUOUS
 10
16.914159528264332
 20
15.92709466875686
 30
0.0
 11
16.911198469531541
 21
15.912947273491101
 31
0.0
  0
LINE
  5
A663
  8
0
  6
CONTINUOUS
 10
17.18388707698622
 20
15.967552304488009
 30
0.0
 11
17.171655484087449
 21
15.906876725138209
 31
0.0
  0
LINE
  5
A664
  8
0
  6
CONTINUOUS
 10
17.235325589015599
 20
15.967552304488009
 30
0.0
 11
17.223187210871551
 21
15.906876725138209
 31
0.0
  0
LINE
  5
A665
  8
0
  6
CONTINUOUS
 10
17.171655484087449
 20
15.906876725138209
 30
0.0
 11
17.163091889363841
 21
15.86439647947668
 31
0.0
  0
LINE
  5
A666
  8
0
  6
CONTINUOUS
 10
17.36274457750633
 20
15.906876725138209
 30
0.0
 11
17.35263152785442
 21
15.86439647947668
 31
0.0
  0
LINE
  5
A667
  8
0
  6
CONTINUOUS
 10
17.08363256279852
 20
16.012044285832999
 30
0.0
 11
17.052008329751381
 21
15.85023820996399
 31
0.0
  0
LINE
  5
A668
  8
0
  6
CONTINUOUS
 10
17.136214983865042
 20
16.012044285832999
 30
0.0
 11
17.102350556324659
 21
15.85023820996399
 31
0.0
  0
LINE
  5
A669
  8
0
  6
CONTINUOUS
 10
16.969670380464791
 20
15.912947273491101
 30
0.0
 11
16.993457078114101
 21
15.85023820996399
 31
0.0
  0
LINE
  5
A66A
  8
0
  6
CONTINUOUS
 10
17.020972154990879
 20
15.912947273491101
 30
0.0
 11
17.044038014260849
 21
15.85023820996399
 31
0.0
  0
LINE
  5
A66B
  8
0
  6
CONTINUOUS
 10
16.250328145727149
 20
15.95743925483608
 30
0.0
 11
16.264489133801579
 21
15.85023820996399
 31
0.0
  0
LINE
  5
A66C
  8
0
  6
CONTINUOUS
 10
16.29722828271839
 20
15.95743925483608
 30
0.0
 11
16.313847058461391
 21
15.85023820996399
 31
0.0
  0
LINE
  5
A66D
  8
0
  6
CONTINUOUS
 10
16.194400195093639
 20
15.95743925483608
 30
0.0
 11
16.13622777797308
 21
15.85023820996399
 31
0.0
  0
LINE
  5
A66E
  8
0
  6
CONTINUOUS
 10
16.250328145727149
 20
15.95743925483608
 30
0.0
 11
16.191675176307729
 21
15.85023820996399
 31
0.0
  0
LINE
  5
A66F
  8
0
  6
CONTINUOUS
 10
15.898402173525501
 20
15.912947273491101
 30
0.0
 11
15.86199247621685
 21
15.85023820996399
 31
0.0
  0
LINE
  5
A670
  8
0
  6
CONTINUOUS
 10
16.10470294930122
 20
15.912947273491101
 30
0.0
 11
16.068301407677779
 21
15.85023820996399
 31
0.0
  0
LINE
  5
A671
  8
0
  6
CONTINUOUS
 10
17.102350556324659
 20
15.85023820996399
 30
0.0
 11
17.099389076035202
 21
15.836088096136489
 31
0.0
  0
LINE
  5
A672
  8
0
  6
CONTINUOUS
 10
16.993457078114101
 20
15.85023820996399
 30
0.0
 11
16.998824475749888
 21
15.836088096136489
 31
0.0
  0
LINE
  5
A673
  8
0
  6
CONTINUOUS
 10
16.13622777797308
 20
15.85023820996399
 30
0.0
 11
16.11318186464522
 21
15.807768838549389
 31
0.0
  0
LINE
  5
A674
  8
0
  6
CONTINUOUS
 10
16.313847058461391
 20
15.85023820996399
 30
0.0
 11
16.32043084652361
 21
15.807768838549389
 31
0.0
  0
LINE
  5
A675
  8
0
  6
CONTINUOUS
 10
17.163091889363841
 20
15.86439647947668
 30
0.0
 11
17.148821606309451
 21
15.79360785047497
 31
0.0
  0
LINE
  5
A676
  8
0
  6
CONTINUOUS
 10
17.215096771150019
 20
15.86439647947668
 30
0.0
 11
17.198913173145218
 21
15.79360785047497
 31
0.0
  0
LINE
  5
A677
  8
0
  6
CONTINUOUS
 10
16.41618216001865
 20
16.012044285832999
 30
0.0
 11
16.370463276625198
 21
15.79360785047497
 31
0.0
  0
LINE
  5
A678
  8
0
  6
CONTINUOUS
 10
16.468767299646931
 20
16.012044285832999
 30
0.0
 11
16.422249989809821
 21
15.79360785047497
 31
0.0
  0
LINE
  5
A679
  8
0
  6
CONTINUOUS
 10
17.148821606309451
 20
15.79360785047497
 30
0.0
 11
17.140260203725791
 21
15.751138479060369
 31
0.0
  0
LINE
  5
A67A
  8
0
  6
CONTINUOUS
 10
17.35263152785442
 20
15.79360785047497
 30
0.0
 11
17.340504023957308
 21
15.751138479060369
 31
0.0
  0
LINE
  5
A67B
  8
0
  6
CONTINUOUS
 10
16.998824475749888
 20
15.836088096136489
 30
0.0
 11
17.031047423170261
 21
15.751138479060369
 31
0.0
  0
LINE
  5
A67C
  8
0
  6
CONTINUOUS
 10
17.099389076035202
 20
15.836088096136489
 30
0.0
 11
17.081609952868121
 21
15.751138479060369
 31
0.0
  0
LINE
  5
A67D
  8
0
  6
CONTINUOUS
 10
16.911198469531541
 20
15.912947273491101
 30
0.0
 11
16.87733178702279
 21
15.751138479060369
 31
0.0
  0
LINE
  5
A67E
  8
0
  6
CONTINUOUS
 10
16.961538972466499
 20
15.912947273491101
 30
0.0
 11
16.929914208089318
 21
15.751138479060369
 31
0.0
  0
LINE
  5
A67F
  8
0
  6
CONTINUOUS
 10
16.82878371157009
 20
16.012044285832999
 30
0.0
 11
16.776198571941851
 21
15.751138479060369
 31
0.0
  0
LINE
  5
A680
  8
0
  6
CONTINUOUS
 10
16.881377006883572
 20
16.012044285832999
 30
0.0
 11
16.824735773147591
 21
15.751138479060369
 31
0.0
  0
LINE
  5
A681
  8
0
  6
CONTINUOUS
 10
16.658895351664771
 20
15.967552304488009
 30
0.0
 11
16.614389777511111
 21
15.751138479060369
 31
0.0
  0
LINE
  5
A682
  8
0
  6
CONTINUOUS
 10
16.7094551628009
 20
15.967552304488009
 30
0.0
 11
16.66496318145591
 21
15.751138479060369
 31
0.0
  0
LINE
  5
A683
  8
0
  6
CONTINUOUS
 10
16.370463276625198
 20
15.79360785047497
 30
0.0
 11
16.361574410460008
 21
15.751138479060369
 31
0.0
  0
LINE
  5
A684
  8
0
  6
CONTINUOUS
 10
16.561807356444579
 20
15.79360785047497
 30
0.0
 11
16.549668978300531
 21
15.751138479060369
 31
0.0
  0
LINE
  5
A685
  8
0
  6
CONTINUOUS
 10
16.270556963592728
 20
15.807768838549389
 30
0.0
 11
16.27864740331427
 21
15.751138479060369
 31
0.0
  0
LINE
  5
A686
  8
0
  6
CONTINUOUS
 10
16.32043084652361
 20
15.807768838549389
 30
0.0
 11
16.329209933012141
 21
15.751138479060369
 31
0.0
  0
LINE
  5
A687
  8
0
  6
CONTINUOUS
 10
16.11318186464522
 20
15.807768838549389
 30
0.0
 11
16.082451521505249
 21
15.751138479060369
 31
0.0
  0
LINE
  5
A688
  8
0
  6
CONTINUOUS
 10
16.169423748511779
 20
15.807768838549389
 30
0.0
 11
16.141115365171601
 21
15.751138479060369
 31
0.0
  0
LINE
  5
A689
  8
0
  6
CONTINUOUS
 10
15.84379714252859
 20
15.81383666834054
 30
0.0
 11
15.80940733658859
 21
15.751138479060369
 31
0.0
  0
LINE
  5
A68A
  8
0
  6
CONTINUOUS
 10
16.050097918304321
 20
15.81383666834054
 30
0.0
 11
16.013685502433919
 21
15.751138479060369
 31
0.0
  0
ENDBLK
  5
A68C
  8
0
  0
BLOCK
  8
0
  2
*U26
 70
     1
 10
0.0
 20
0.0
 30
0.0
  3
*U26
  1

  0
TEXT
  5
A68E
  8
0
 10
20.394813615906191
 20
15.70357558952481
 30
0.0
 40
0.1
  1
AC225-126W
  7
ROMANT
  0
TEXT
  5
A68F
  8
0
 10
20.394813615906191
 20
15.53513538943386
 30
0.0
 40
0.1
  1
AC225-126B
  7
ROMANT
  0
TEXT
  5
A690
  8
0
 10
20.394813615906191
 20
15.366695189342909
 30
0.0
 40
0.1
  1
AC225-126I
  7
ROMANT
  0
ENDBLK
  5
A692
  8
0
  0
BLOCK
  8
0
  2
*U27
 70
     1
 10
0.0
 20
0.0
 30
0.0
  3
*U27
  1

  0
SOLID
  5
A694
  8
0
  6
CONTINUOUS
 10
17.58118101286437
 20
16.012044285832999
 30
0.0
 11
17.538796830089979
 21
15.962966127745149
 31
0.0
 12
17.60534487784501
 22
15.962966127745149
 32
0.0
 13
17.60534487784501
 23
15.962966127745149
 33
0.0
  0
SOLID
  5
A695
  8
0
  6
CONTINUOUS
 10
-17.58118101286437
 20
16.012044285832999
 30
0.0
 11
-17.647927140567042
 21
16.012044285832999
 31
0.0
 12
-17.60534487784501
 22
15.962966127745149
 32
0.0
 13
-17.60534487784501
 23
15.962966127745149
 33
0.0
210
0.0
220
0.0
230
-1.0
  0
SOLID
  5
A696
  8
0
  6
CONTINUOUS
 10
17.538796830089979
 20
15.962966127745149
 30
0.0
 11
17.536090947937819
 21
15.95938574503788
 31
0.0
 12
17.602238388053479
 22
15.95938574503788
 32
0.0
 13
17.602238388053479
 23
15.95938574503788
 33
0.0
210
0.0
220
0.0
230
1.0
  0
SOLID
  5
A697
  8
0
  6
CONTINUOUS
 10
-17.538796830089979
 20
15.962966127745149
 30
0.0
 11
-17.60534487784501
 21
15.962966127745149
 31
0.0
 12
-17.602238388053479
 22
15.95938574503788
 32
0.0
 13
-17.602238388053479
 23
15.95938574503788
 33
0.0
210
0.0
220
0.0
230
-1.0
  0
SOLID
  5
A698
  8
0
  6
CONTINUOUS
 10
17.536090947937819
 20
15.95938574503788
 30
0.0
 11
17.530545081999598
 21
15.952793232831819
 31
0.0
 12
17.59651844872214
 22
15.952793232831819
 32
0.0
 13
17.59651844872214
 23
15.952793232831819
 33
0.0
210
0.0
220
0.0
230
1.0
  0
SOLID
  5
A699
  8
0
  6
CONTINUOUS
 10
-17.536090947937819
 20
15.95938574503788
 30
0.0
 11
-17.602238388053479
 21
15.95938574503788
 31
0.0
 12
-17.59651844872214
 22
15.952793232831819
 32
0.0
 13
-17.59651844872214
 23
15.952793232831819
 33
0.0
210
0.0
220
0.0
230
-1.0
  0
SOLID
  5
A69A
  8
0
  6
CONTINUOUS
 10
17.530545081999598
 20
15.952793232831819
 30
0.0
 11
17.524553371936989
 21
15.945300876692
 31
0.0
 12
17.590017767156588
 22
15.945300876692
 32
0.0
 13
17.590017767156588
 23
15.945300876692
 33
0.0
210
0.0
220
0.0
230
1.0
  0
SOLID
  5
A69B
  8
0
  6
CONTINUOUS
 10
-17.530545081999598
 20
15.952793232831819
 30
0.0
 11
-17.59651844872214
 21
15.952793232831819
 31
0.0
 12
-17.590017767156588
 22
15.945300876692
 32
0.0
 13
-17.590017767156588
 23
15.945300876692
 33
0.0
210
0.0
220
0.0
230
-1.0
  0
SOLID
  5
A69C
  8
0
  6
CONTINUOUS
 10
17.524553371936989
 20
15.945300876692
 30
0.0
 11
17.518409422417321
 21
15.93863496331933
 31
0.0
 12
17.584234141902989
 22
15.93863496331933
 32
0.0
 13
17.584234141902989
 23
15.93863496331933
 33
0.0
210
0.0
220
0.0
230
1.0
  0
SOLID
  5
A69D
  8
0
  6
CONTINUOUS
 10
-17.524553371936989
 20
15.945300876692
 30
0.0
 11
-17.590017767156588
 21
15.945300876692
 31
0.0
 12
-17.584234141902989
 22
15.93863496331933
 32
0.0
 13
-17.584234141902989
 23
15.93863496331933
 33
0.0
210
0.0
220
0.0
230
-1.0
  0
SOLID
  5
A69E
  8
0
  6
CONTINUOUS
 10
17.518409422417321
 20
15.93863496331933
 30
0.0
 11
17.511816910211468
 21
15.931066487450799
 31
0.0
 12
17.577667415676991
 22
15.931066487450799
 32
0.0
 13
17.577667415676991
 23
15.931066487450799
 33
0.0
210
0.0
220
0.0
230
1.0
  0
SOLID
  5
A69F
  8
0
  6
CONTINUOUS
 10
-17.518409422417321
 20
15.93863496331933
 30
0.0
 11
-17.584234141902989
 21
15.93863496331933
 31
0.0
 12
-17.577667415676991
 22
15.931066487450799
 32
0.0
 13
-17.577667415676991
 23
15.931066487450799
 33
0.0
210
0.0
220
0.0
230
-1.0
  0
SOLID
  5
A6A0
  8
0
  6
CONTINUOUS
 10
17.40522482316786
 20
16.012044285832999
 30
0.0
 11
17.447699631705941
 21
15.927094668756849
 31
0.0
 12
17.502301944141109
 22
15.927094668756849
 32
0.0
 13
17.502301944141109
 23
15.927094668756849
 33
0.0
210
0.0
220
0.0
230
1.0
  0
SOLID
  5
A6A1
  8
0
  6
CONTINUOUS
 10
-17.40522482316786
 20
16.012044285832999
 30
0.0
 11
-17.459832572726508
 21
16.012044285832999
 31
0.0
 12
-17.502301944141109
 22
15.927094668756849
 32
0.0
 13
-17.502301944141109
 23
15.927094668756849
 33
0.0
210
0.0
220
0.0
230
-1.0
  0
SOLID
  5
A6A2
  8
0
  6
CONTINUOUS
 10
17.447699631705941
 20
15.927094668756849
 30
0.0
 11
17.447998673496709
 21
15.9264965851753
 31
0.0
 12
17.502375345307929
 22
15.9264965851753
 32
0.0
 13
17.502375345307929
 23
15.9264965851753
 33
0.0
210
0.0
220
0.0
230
1.0
  0
SOLID
  5
A6A3
  8
0
  6
CONTINUOUS
 10
-17.447699631705941
 20
15.927094668756849
 30
0.0
 11
-17.502301944141109
 21
15.927094668756849
 31
0.0
 12
-17.502375345307929
 22
15.9264965851753
 32
0.0
 13
-17.502375345307929
 23
15.9264965851753
 33
0.0
210
0.0
220
0.0
230
-1.0
  0
SOLID
  5
A6A4
  8
0
  6
CONTINUOUS
 10
17.447998673496709
 20
15.9264965851753
 30
0.0
 11
17.448747637254542
 21
15.924998657659639
 31
0.0
 12
17.502900027722681
 22
15.924998657659639
 32
0.0
 13
17.502900027722681
 23
15.924998657659639
 33
0.0
210
0.0
220
0.0
230
1.0
  0
SOLID
  5
A6A5
  8
0
  6
CONTINUOUS
 10
-17.447998673496709
 20
15.9264965851753
 30
0.0
 11
-17.502375345307929
 21
15.9264965851753
 31
0.0
 12
-17.502900027722681
 22
15.924998657659639
 32
0.0
 13
-17.502900027722681
 23
15.924998657659639
 33
0.0
210
0.0
220
0.0
230
-1.0
  0
SOLID
  5
A6A6
  8
0
  6
CONTINUOUS
 10
17.511816910211468
 20
15.931066487450799
 30
0.0
 11
17.504324554071491
 21
15.92304944889608
 31
0.0
 12
17.570711497702671
 22
15.92304944889608
 32
0.0
 13
17.570711497702671
 23
15.92304944889608
 33
0.0
210
0.0
220
0.0
230
1.0
  0
SOLID
  5
A6A7
  8
0
  6
CONTINUOUS
 10
-17.511816910211468
 20
15.931066487450799
 30
0.0
 11
-17.577667415676991
 21
15.931066487450799
 31
0.0
 12
-17.570711497702671
 22
15.92304944889608
 32
0.0
 13
-17.570711497702671
 23
15.92304944889608
 33
0.0
210
0.0
220
0.0
230
-1.0
  0
SOLID
  5
A6A8
  8
0
  6
CONTINUOUS
 10
17.448747637254542
 20
15.924998657659639
 30
0.0
 11
17.44972224163633
 21
15.92304944889608
 31
0.0
 12
17.504324554071491
 22
15.92304944889608
 32
0.0
 13
17.504324554071491
 23
15.92304944889608
 33
0.0
210
0.0
220
0.0
230
1.0
  0
SOLID
  5
A6A9
  8
0
  6
CONTINUOUS
 10
-17.448747637254542
 20
15.924998657659639
 30
0.0
 11
-17.502900027722681
 21
15.924998657659639
 31
0.0
 12
-17.504324554071491
 22
15.92304944889608
 32
0.0
 13
-17.504324554071491
 23
15.92304944889608
 33
0.0
210
0.0
220
0.0
230
-1.0
  0
SOLID
  5
A6AA
  8
0
  6
CONTINUOUS
 10
17.44972224163633
 20
15.92304944889608
 30
0.0
 11
17.469945622378429
 21
15.88260268741187
 31
0.0
 12
17.5356181956946
 22
15.88260268741187
 32
0.0
 13
17.5356181956946
 23
15.88260268741187
 33
0.0
210
0.0
220
0.0
230
1.0
  0
SOLID
  5
A6AB
  8
0
  6
CONTINUOUS
 10
-17.44972224163633
 20
15.92304944889608
 30
0.0
 11
-17.570711497702671
 21
15.92304944889608
 31
0.0
 12
-17.5356181956946
 22
15.88260268741187
 32
0.0
 13
-17.5356181956946
 23
15.88260268741187
 33
0.0
210
0.0
220
0.0
230
-1.0
  0
SOLID
  5
A6AC
  8
0
  6
CONTINUOUS
 10
17.469945622378429
 20
15.88260268741187
 30
0.0
 11
17.46285046835737
 21
15.87451224769033
 31
0.0
 12
17.528598591797842
 22
15.87451224769033
 32
0.0
 13
17.528598591797842
 23
15.87451224769033
 33
0.0
210
0.0
220
0.0
230
1.0
  0
SOLID
  5
A6AD
  8
0
  6
CONTINUOUS
 10
-17.469945622378429
 20
15.88260268741187
 30
0.0
 11
-17.5356181956946
 21
15.88260268741187
 31
0.0
 12
-17.528598591797842
 22
15.87451224769033
 32
0.0
 13
-17.528598591797842
 23
15.87451224769033
 33
0.0
210
0.0
220
0.0
230
-1.0
  0
SOLID
  5
A6AE
  8
0
  6
CONTINUOUS
 10
17.46285046835737
 20
15.87451224769033
 30
0.0
 11
17.427379466500721
 21
15.83406548620613
 31
0.0
 12
17.549153517982461
 22
15.83406548620613
 32
0.0
 13
17.549153517982461
 23
15.83406548620613
 33
0.0
  0
SOLID
  5
A6AF
  8
0
  6
CONTINUOUS
 10
-17.46285046835737
 20
15.87451224769033
 30
0.0
 11
-17.528598591797842
 21
15.87451224769033
 31
0.0
 12
-17.549153517982461
 22
15.83406548620613
 32
0.0
 13
-17.549153517982461
 23
15.83406548620613
 33
0.0
210
0.0
220
0.0
230
-1.0
  0
SOLID
  5
A6B0
  8
0
  6
CONTINUOUS
 10
17.427379466500721
 20
15.83406548620613
 30
0.0
 11
17.39202151669954
 21
15.793747635361131
 31
0.0
 12
17.45782570559922
 22
15.793747635361131
 32
0.0
 13
17.45782570559922
 23
15.793747635361131
 33
0.0
  0
SOLID
  5
A6B1
  8
0
  6
CONTINUOUS
 10
-17.427379466500721
 20
15.83406548620613
 30
0.0
 11
-17.49420878585784
 21
15.83406548620613
 31
0.0
 12
-17.45782570559922
 22
15.793747635361131
 32
0.0
 13
-17.45782570559922
 23
15.793747635361131
 33
0.0
210
0.0
220
0.0
230
-1.0
  0
SOLID
  5
A6B2
  8
0
  6
CONTINUOUS
 10
17.39202151669954
 20
15.793747635361131
 30
0.0
 11
17.390125139641281
 21
15.79158524054438
 31
0.0
 12
17.455784634303939
 22
15.79158524054438
 32
0.0
 13
17.455784634303939
 23
15.79158524054438
 33
0.0
210
0.0
220
0.0
230
1.0
  0
SOLID
  5
A6B3
  8
0
  6
CONTINUOUS
 10
-17.39202151669954
 20
15.793747635361131
 30
0.0
 11
-17.45782570559922
 21
15.793747635361131
 31
0.0
 12
-17.455784634303939
 22
15.79158524054438
 32
0.0
 13
-17.455784634303939
 23
15.79158524054438
 33
0.0
210
0.0
220
0.0
230
-1.0
  0
SOLID
  5
A6B4
  8
0
  6
CONTINUOUS
 10
17.49420878585784
 20
15.83406548620613
 30
0.0
 11
17.53466642158898
 21
15.751138479060369
 31
0.0
 12
17.591296781078022
 22
15.751138479060369
 32
0.0
 13
17.591296781078022
 23
15.751138479060369
 33
0.0
  0
SOLID
  5
A6B5
  8
0
  6
CONTINUOUS
 10
-17.49420878585784
 20
15.83406548620613
 30
0.0
 11
-17.549153517982461
 21
15.83406548620613
 31
0.0
 12
-17.591296781078022
 22
15.751138479060369
 32
0.0
 13
-17.591296781078022
 23
15.751138479060369
 33
0.0
210
0.0
220
0.0
230
-1.0
  0
SOLID
  5
A6B6
  8
0
  6
CONTINUOUS
 10
17.390125139641281
 20
15.79158524054438
 30
0.0
 11
17.354654137784799
 21
15.751138479060369
 31
0.0
 12
17.419374936995361
 22
15.751138479060369
 32
0.0
 13
17.419374936995361
 23
15.751138479060369
 33
0.0
  0
SOLID
  5
A6B7
  8
0
  6
CONTINUOUS
 10
-17.390125139641281
 20
15.79158524054438
 30
0.0
 11
-17.455784634303939
 21
15.79158524054438
 31
0.0
 12
-17.419374936995361
 22
15.751138479060369
 32
0.0
 13
-17.419374936995361
 23
15.751138479060369
 33
0.0
210
0.0
220
0.0
230
-1.0
  0
LINE
  5
A6B8
  8
0
  6
CONTINUOUS
 10
17.58118101286437
 20
16.012044285832999
 30
0.0
 11
17.538796830089979
 21
15.962966127745149
 31
0.0
  0
LINE
  5
A6B9
  8
0
  6
CONTINUOUS
 10
17.647927140567042
 20
16.012044285832999
 30
0.0
 11
17.60534487784501
 21
15.962966127745149
 31
0.0
  0
LINE
  5
A6BA
  8
0
  6
CONTINUOUS
 10
17.538796830089979
 20
15.962966127745149
 30
0.0
 11
17.536090947937819
 21
15.95938574503788
 31
0.0
  0
LINE
  5
A6BB
  8
0
  6
CONTINUOUS
 10
17.60534487784501
 20
15.962966127745149
 30
0.0
 11
17.602238388053479
 21
15.95938574503788
 31
0.0
  0
LINE
  5
A6BC
  8
0
  6
CONTINUOUS
 10
17.536090947937819
 20
15.95938574503788
 30
0.0
 11
17.530545081999598
 21
15.952793232831819
 31
0.0
  0
LINE
  5
A6BD
  8
0
  6
CONTINUOUS
 10
17.602238388053479
 20
15.95938574503788
 30
0.0
 11
17.59651844872214
 21
15.952793232831819
 31
0.0
  0
LINE
  5
A6BE
  8
0
  6
CONTINUOUS
 10
17.530545081999598
 20
15.952793232831819
 30
0.0
 11
17.524553371936989
 21
15.945300876692
 31
0.0
  0
LINE
  5
A6BF
  8
0
  6
CONTINUOUS
 10
17.59651844872214
 20
15.952793232831819
 30
0.0
 11
17.590017767156588
 21
15.945300876692
 31
0.0
  0
LINE
  5
A6C0
  8
0
  6
CONTINUOUS
 10
17.524553371936989
 20
15.945300876692
 30
0.0
 11
17.518409422417321
 21
15.93863496331933
 31
0.0
  0
LINE
  5
A6C1
  8
0
  6
CONTINUOUS
 10
17.590017767156588
 20
15.945300876692
 30
0.0
 11
17.584234141902989
 21
15.93863496331933
 31
0.0
  0
LINE
  5
A6C2
  8
0
  6
CONTINUOUS
 10
17.518409422417321
 20
15.93863496331933
 30
0.0
 11
17.511816910211468
 21
15.931066487450799
 31
0.0
  0
LINE
  5
A6C3
  8
0
  6
CONTINUOUS
 10
17.584234141902989
 20
15.93863496331933
 30
0.0
 11
17.577667415676991
 21
15.931066487450799
 31
0.0
  0
LINE
  5
A6C4
  8
0
  6
CONTINUOUS
 10
17.40522482316786
 20
16.012044285832999
 30
0.0
 11
17.447699631705941
 21
15.927094668756849
 31
0.0
  0
LINE
  5
A6C5
  8
0
  6
CONTINUOUS
 10
17.459832572726508
 20
16.012044285832999
 30
0.0
 11
17.502301944141109
 21
15.927094668756849
 31
0.0
  0
LINE
  5
A6C6
  8
0
  6
CONTINUOUS
 10
17.447699631705941
 20
15.927094668756849
 30
0.0
 11
17.447998673496709
 21
15.9264965851753
 31
0.0
  0
LINE
  5
A6C7
  8
0
  6
CONTINUOUS
 10
17.502301944141109
 20
15.927094668756849
 30
0.0
 11
17.502375345307929
 21
15.9264965851753
 31
0.0
  0
LINE
  5
A6C8
  8
0
  6
CONTINUOUS
 10
17.447998673496709
 20
15.9264965851753
 30
0.0
 11
17.448747637254542
 21
15.924998657659639
 31
0.0
  0
LINE
  5
A6C9
  8
0
  6
CONTINUOUS
 10
17.502375345307929
 20
15.9264965851753
 30
0.0
 11
17.502900027722681
 21
15.924998657659639
 31
0.0
  0
LINE
  5
A6CA
  8
0
  6
CONTINUOUS
 10
17.511816910211468
 20
15.931066487450799
 30
0.0
 11
17.504324554071491
 21
15.92304944889608
 31
0.0
  0
LINE
  5
A6CB
  8
0
  6
CONTINUOUS
 10
17.577667415676991
 20
15.931066487450799
 30
0.0
 11
17.570711497702671
 21
15.92304944889608
 31
0.0
  0
LINE
  5
A6CC
  8
0
  6
CONTINUOUS
 10
17.448747637254542
 20
15.924998657659639
 30
0.0
 11
17.44972224163633
 21
15.92304944889608
 31
0.0
  0
LINE
  5
A6CD
  8
0
  6
CONTINUOUS
 10
17.502900027722681
 20
15.924998657659639
 30
0.0
 11
17.504324554071491
 21
15.92304944889608
 31
0.0
  0
LINE
  5
A6CE
  8
0
  6
CONTINUOUS
 10
17.44972224163633
 20
15.92304944889608
 30
0.0
 11
17.469945622378429
 21
15.88260268741187
 31
0.0
  0
LINE
  5
A6CF
  8
0
  6
CONTINUOUS
 10
17.570711497702671
 20
15.92304944889608
 30
0.0
 11
17.5356181956946
 21
15.88260268741187
 31
0.0
  0
LINE
  5
A6D0
  8
0
  6
CONTINUOUS
 10
17.469945622378429
 20
15.88260268741187
 30
0.0
 11
17.46285046835737
 21
15.87451224769033
 31
0.0
  0
LINE
  5
A6D1
  8
0
  6
CONTINUOUS
 10
17.5356181956946
 20
15.88260268741187
 30
0.0
 11
17.528598591797842
 21
15.87451224769033
 31
0.0
  0
LINE
  5
A6D2
  8
0
  6
CONTINUOUS
 10
17.46285046835737
 20
15.87451224769033
 30
0.0
 11
17.427379466500721
 21
15.83406548620613
 31
0.0
  0
LINE
  5
A6D3
  8
0
  6
CONTINUOUS
 10
17.528598591797842
 20
15.87451224769033
 30
0.0
 11
17.549153517982461
 21
15.83406548620613
 31
0.0
  0
LINE
  5
A6D4
  8
0
  6
CONTINUOUS
 10
17.427379466500721
 20
15.83406548620613
 30
0.0
 11
17.39202151669954
 21
15.793747635361131
 31
0.0
  0
LINE
  5
A6D5
  8
0
  6
CONTINUOUS
 10
17.49420878585784
 20
15.83406548620613
 30
0.0
 11
17.45782570559922
 21
15.793747635361131
 31
0.0
  0
LINE
  5
A6D6
  8
0
  6
CONTINUOUS
 10
17.39202151669954
 20
15.793747635361131
 30
0.0
 11
17.390125139641281
 21
15.79158524054438
 31
0.0
  0
LINE
  5
A6D7
  8
0
  6
CONTINUOUS
 10
17.45782570559922
 20
15.793747635361131
 30
0.0
 11
17.455784634303939
 21
15.79158524054438
 31
0.0
  0
LINE
  5
A6D8
  8
0
  6
CONTINUOUS
 10
17.49420878585784
 20
15.83406548620613
 30
0.0
 11
17.53466642158898
 21
15.751138479060369
 31
0.0
  0
LINE
  5
A6D9
  8
0
  6
CONTINUOUS
 10
17.549153517982461
 20
15.83406548620613
 30
0.0
 11
17.591296781078022
 21
15.751138479060369
 31
0.0
  0
LINE
  5
A6DA
  8
0
  6
CONTINUOUS
 10
17.390125139641281
 20
15.79158524054438
 30
0.0
 11
17.354654137784799
 21
15.751138479060369
 31
0.0
  0
LINE
  5
A6DB
  8
0
  6
CONTINUOUS
 10
17.455784634303939
 20
15.79158524054438
 30
0.0
 11
17.419374936995361
 21
15.751138479060369
 31
0.0
  0
ENDBLK
  5
A6DD
  8
0
  0
BLOCK
  8
0
  2
*U28
 70
     1
 10
0.0
 20
0.0
 30
0.0
  3
*U28
  1

  0
TEXT
  5
A6DF
  8
0
 10
17.711848039602831
 20
16.024775227528451
 30
0.0
 40
0.04
  1
R
  7
ROMANT
  0
ENDBLK
  5
A6E1
  8
0
  0
BLOCK
  8
0
  2
*U29
 70
     1
 10
0.0
 20
0.0
 30
0.0
  3
*U29
  1

  0
TEXT
  5
A6E6
  8
0
 10
16.055273912045891
 20
17.534500771263541
 30
0.0
 40
0.09
  1
inch.
 50
90.0
  7
ROMANT
  0
ENDBLK
  5
A6E8
  8
0
  0
BLOCK
  8
0
  2
*U30
 70
     1
 10
0.0
 20
0.0
 30
0.0
  3
*U30
  1

  0
TEXT
  5
A6EA
  8
0
 10
15.95499092879305
 20
18.678939010908611
 30
0.0
 40
0.11
  1
MEASURE  WITH A RULER.
 50
90.0
  7
ROMANT
  0
ENDBLK
  5
A6EC
  8
0
  0
BLOCK
  8
0
  2
*U31
 70
     1
 10
0.0
 20
0.0
 30
0.0
  3
*U31
  1

  0
TEXT
  5
A6EE
  8
0
 10
15.650516389533291
 20
23.712777477108489
 30
0.0
 40
0.096
  1
VERIFY ALL DIMENSIONS
  7
ROMANT
  0
TEXT
  5
A6EF
  8
0
 10
15.64815895433548
 20
23.551140369332231
 30
0.0
 40
0.096
  1
TO ENSURE THAT THIS
  7
ROMANT
  0
TEXT
  5
A6F0
  8
0
 10
15.64252730358513
 20
23.389503261555969
 30
0.0
 40
0.096
  1
PRINT IS 1 TO 1 SCALE.
  7
ROMANT
  0
ENDBLK
  5
A6F2
  8
0
  0
BLOCK
  8
0
  2
*U32
 70
     1
 10
0.0
 20
0.0
 30
0.0
  3
*U32
  1

  0
TEXT
  5
A6F4
  8
0
 10
16.523091578081999
 20
17.542503875002069
 30
0.0
 40
0.09
  1
cm.
 50
90.0
  7
ROMANT
  0
ENDBLK
  5
A6F6
  8
0
  0
BLOCK
  8
0
  2
*U33
 70
     1
 10
0.0
 20
0.0
 30
0.0
  3
*U33
  1

  0
TEXT
  5
A6F8
  8
0
 10
16.300683318689121
 20
17.452384121531502
 30
0.0
 40
0.09
  1
0"
 50
90.0
  7
ROMANT
  0
ENDBLK
  5
A6FA
  8
0
  0
BLOCK
  8
0
  2
*U34
 70
     1
 10
0.0
 20
0.0
 30
0.0
  3
*U34
  1

  0
TEXT
  5
A6FC
  8
0
 10
16.768692087987709
 20
17.483884121531499
 30
0.0
 40
0.09
  1
0
 50
90.0
  7
ROMANT
  0
ENDBLK
  5
A6FE
  8
0
  0
BLOCK
  8
0
  2
*U35
 70
     1
 10
0.0
 20
0.0
 30
0.0
  3
*U35
  1

  0
TEXT
  5
A700
  8
0
 10
16.768692087987709
 20
17.87614806129783
 30
0.0
 40
0.09
  1
1
 50
90.0
  7
ROMANT
  0
ENDBLK
  5
A702
  8
0
  0
BLOCK
  8
0
  2
*U36
 70
     1
 10
0.0
 20
0.0
 30
0.0
  3
*U36
  1

  0
TEXT
  5
A704
  8
0
 10
16.300683318689121
 20
18.44391208878935
 30
0.0
 40
0.09
  1
1"
 50
90.0
  7
ROMANT
  0
ENDBLK
  5
A706
  8
0
  0
BLOCK
  8
0
  2
*U37
 70
     1
 10
0.0
 20
0.0
 30
0.0
  3
*U37
  1

  0
TEXT
  5
A708
  8
0
 10
16.768692087987709
 20
18.279854882580231
 30
0.0
 40
0.09
  1
2
 50
90.0
  7
ROMANT
  0
ENDBLK
  5
A70A
  8
0
  0
BLOCK
  8
0
  2
*U38
 70
     1
 10
0.0
 20
0.0
 30
0.0
  3
*U38
  1

  0
TEXT
  5
A70C
  8
0
 10
16.768692087987709
 20
18.671958702498369
 30
0.0
 40
0.09
  1
3
 50
90.0
  7
ROMANT
  0
ENDBLK
  5
A70E
  8
0
  0
BLOCK
  8
0
  2
*U39
 70
     1
 10
0.0
 20
0.0
 30
0.0
  3
*U39
  1

  0
TEXT
  5
A710
  8
0
 10
16.300683318689121
 20
19.453918910071749
 30
0.0
 40
0.09
  1
2"
 50
90.0
  7
ROMANT
  0
ENDBLK
  5
A712
  8
0
  0
BLOCK
  8
0
  2
*U40
 70
     1
 10
0.0
 20
0.0
 30
0.0
  3
*U40
  1

  0
TEXT
  5
A714
  8
0
 10
16.768323738738051
 20
19.06934219499497
 30
0.0
 40
0.09
  1
4
 50
90.0
  7
ROMANT
  0
ENDBLK
  5
A716
  8
0
  0
BLOCK
  8
0
  2
*U41
 70
     1
 10
0.0
 20
0.0
 30
0.0
  3
*U41
  1

  0
TEXT
  5
A718
  8
0
 10
16.768323738738051
 20
19.459420094039981
 30
0.0
 40
0.09
  1
5
 50
90.0
  7
ROMANT
  0
ENDBLK
  5
A71A
  8
0
  0
BLOCK
  8
0
  2
*U42
 70
     1
 10
0.0
 20
0.0
 30
0.0
  3
*U42
  1

  0
TEXT
  5
A71C
  8
0
 10
16.300683318689121
 20
20.452322729989898
 30
0.0
 40
0.09
  1
3"
 50
90.0
  7
ROMANT
  0
ENDBLK
  5
A71E
  8
0
  0
BLOCK
  8
0
  2
*U43
 70
     1
 10
0.0
 20
0.0
 30
0.0
  3
*U43
  1

  0
TEXT
  5
A720
  8
0
 10
16.768692087987709
 20
19.853611226372859
 30
0.0
 40
0.09
  1
6
 50
90.0
  7
ROMANT
  0
ENDBLK
  5
A722
  8
0
  0
BLOCK
  8
0
  2
*U44
 70
     1
 10
0.0
 20
0.0
 30
0.0
  3
*U44
  1

  0
TEXT
  5
A724
  8
0
 10
16.768323738738051
 20
20.246083395540659
 30
0.0
 40
0.09
  1
7
 50
90.0
  7
ROMANT
  0
ENDBLK
  5
A726
  8
0
  0
BLOCK
  8
0
  2
*U45
 70
     1
 10
0.0
 20
0.0
 30
0.0
  3
*U45
  1

  0
TEXT
  5
A728
  8
0
 10
20.599256259719141
 20
22.749402019805999
 30
0.0
 40
0.11
  1
MEASURE  WITH A RULER.
  7
ROMANT
  0
ENDBLK
  5
A72A
  8
0
  0
BLOCK
  8
0
  2
*U46
 70
     1
 10
0.0
 20
0.0
 30
0.0
  3
*U46
  1

  0
TEXT
  5
A72C
  8
0
 10
15.62172865282926
 20
22.454074702024101
 30
0.0
 40
0.093
  1
THIS IS A PRECISION CUT-OUT TEMPLATE.
  7
ROMANT
  0
TEXT
  5
A72D
  8
0
 10
15.612398456376329
 20
22.275071884152339
 30
0.0
 40
0.115041
  1
DO NOT SCALE OR ADJUST!
  7
ROMANT
  0
ENDBLK
  5
A72F
  8
0
  0
BLOCK
  8
0
  2
*U47
 70
     1
 10
0.0
 20
0.0
 30
0.0
  3
*U47
  1

  0
TEXT
  5
A731
  8
0
 10
16.768692087987709
 20
21.379861458804321
 30
0.0
 40
0.09
  1
10
 50
90.0
  7
ROMANT
  0
ENDBLK
  5
A733
  8
0
  0
BLOCK
  8
0
  2
*U48
 70
     1
 10
0.0
 20
0.0
 30
0.0
  3
*U48
  1

  0
TEXT
  5
A735
  8
0
 10
16.768692087987709
 20
20.640642877123199
 30
0.0
 40
0.09
  1
8
 50
90.0
  7
ROMANT
  0
ENDBLK
  5
A737
  8
0
  0
BLOCK
  8
0
  2
*U49
 70
     1
 10
0.0
 20
0.0
 30
0.0
  3
*U49
  1

  0
TEXT
  5
A739
  8
0
 10
16.768692087987709
 20
21.034220094039981
 30
0.0
 40
0.09
  1
9
 50
90.0
  7
ROMANT
  0
ENDBLK
  5
A73B
  8
0
  0
BLOCK
  8
0
  2
*U50
 70
     1
 10
0.0
 20
0.0
 30
0.0
  3
*U50
  1

  0
TEXT
  5
A73D
  8
0
 10
16.300314969439459
 20
21.45600622248649
 30
0.0
 40
0.09
  1
4"
 50
90.0
  7
ROMANT
  0
ENDBLK
  5
A73F
  8
0
  0
BLOCK
  8
0
  2
*U51
 70
     1
 10
0.0
 20
0.0
 30
0.0
  3
*U51
  1

  0
TEXT
  5
A741
  8
0
 10
17.391749290093419
 20
23.00412536282246
 30
0.0
 40
0.09
  1
0
  7
ROMANT
  0
ENDBLK
  5
A743
  8
0
  0
BLOCK
  8
0
  2
*U52
 70
     1
 10
0.0
 20
0.0
 30
0.0
  3
*U52
  1

  0
TEXT
  5
A745
  8
0
 10
17.76228126380564
 20
22.998176952797969
 30
0.0
 40
0.09
  1
1
  7
ROMANT
  0
ENDBLK
  5
A747
  8
0
  0
BLOCK
  8
0
  2
*U53
 70
     1
 10
0.0
 20
0.0
 30
0.0
  3
*U53
  1

  0
TEXT
  5
A749
  8
0
 10
18.165988085088038
 20
22.998176952797969
 30
0.0
 40
0.09
  1
2
  7
ROMANT
  0
ENDBLK
  5
A74B
  8
0
  0
BLOCK
  8
0
  2
*U54
 70
     1
 10
0.0
 20
0.0
 30
0.0
  3
*U54
  1

  0
TEXT
  5
A74D
  8
0
 10
18.558091905006179
 20
22.998176952797969
 30
0.0
 40
0.09
  1
3
  7
ROMANT
  0
ENDBLK
  5
A74F
  8
0
  0
BLOCK
  8
0
  2
*U55
 70
     1
 10
0.0
 20
0.0
 30
0.0
  3
*U55
  1

  0
TEXT
  5
A751
  8
0
 10
17.360249290093421
 20
23.522779395137029
 30
0.0
 40
0.09
  1
0"
  7
ROMANT
  0
ENDBLK
  5
A753
  8
0
  0
BLOCK
  8
0
  2
*U56
 70
     1
 10
0.0
 20
0.0
 30
0.0
  3
*U56
  1

  0
TEXT
  5
A755
  8
0
 10
17.447613616975119
 20
23.239809111603009
 30
0.0
 40
0.09
  1
cm.
  7
ROMANT
  0
ENDBLK
  5
A757
  8
0
  0
BLOCK
  8
0
  2
*U57
 70
     1
 10
0.0
 20
0.0
 30
0.0
  3
*U57
  1

  0
TEXT
  5
A759
  8
0
 10
17.417782923546639
 20
23.75925163962706
 30
0.0
 40
0.09
  1
inch.
  7
ROMANT
  0
ENDBLK
  5
A75B
  8
0
  0
BLOCK
  8
0
  2
*U58
 70
     1
 10
0.0
 20
0.0
 30
0.0
  3
*U58
  1

  0
TEXT
  5
A75D
  8
0
 10
18.351777257351259
 20
23.522779395137029
 30
0.0
 40
0.09
  1
1"
  7
ROMANT
  0
ENDBLK
  5
A75F
  8
0
  0
BLOCK
  8
0
  2
*U59
 70
     1
 10
0.0
 20
0.0
 30
0.0
  3
*U59
  1

  0
TEXT
  5
A761
  8
0
 10
18.955475397502781
 20
22.998545302047631
 30
0.0
 40
0.09
  1
4
  7
ROMANT
  0
ENDBLK
  5
A763
  8
0
  0
BLOCK
  8
0
  2
*U60
 70
     1
 10
0.0
 20
0.0
 30
0.0
  3
*U60
  1

  0
TEXT
  5
A765
  8
0
 10
19.3276986601084
 20
23.004493712072119
 30
0.0
 40
0.09
  1
5
  7
ROMANT
  0
ENDBLK
  5
A767
  8
0
  0
BLOCK
  8
0
  2
*U61
 70
     1
 10
0.0
 20
0.0
 30
0.0
  3
*U61
  1

  0
TEXT
  5
A769
  8
0
 10
19.73974442888067
 20
22.998176952797969
 30
0.0
 40
0.09
  1
6
  7
ROMANT
  0
ENDBLK
  5
A76B
  8
0
  0
BLOCK
  8
0
  2
*U62
 70
     1
 10
0.0
 20
0.0
 30
0.0
  3
*U62
  1

  0
TEXT
  5
A76D
  8
0
 10
19.361784078633661
 20
23.522779395137029
 30
0.0
 40
0.09
  1
2"
  7
ROMANT
  0
ENDBLK
  5
A76F
  8
0
  0
BLOCK
  8
0
  2
*U63
 70
     1
 10
0.0
 20
0.0
 30
0.0
  3
*U63
  1

  0
TEXT
  5
A771
  8
0
 10
20.13221659804848
 20
22.998545302047631
 30
0.0
 40
0.09
  1
7
  7
ROMANT
  0
ENDBLK
  5
A773
  8
0
  0
BLOCK
  8
0
  2
*U64
 70
     1
 10
0.0
 20
0.0
 30
0.0
  3
*U64
  1

  0
TEXT
  5
A775
  8
0
 10
20.526776079631009
 20
22.998176952797969
 30
0.0
 40
0.09
  1
8
  7
ROMANT
  0
ENDBLK
  5
A777
  8
0
  0
BLOCK
  8
0
  2
*U65
 70
     1
 10
0.0
 20
0.0
 30
0.0
  3
*U65
  1

  0
TEXT
  5
A779
  8
0
 10
20.93225637347582
 20
22.998176952797969
 30
0.0
 40
0.09
  1
9
  7
ROMANT
  0
ENDBLK
  5
A77B
  8
0
  0
BLOCK
  8
0
  2
*U66
 70
     1
 10
0.0
 20
0.0
 30
0.0
  3
*U66
  1

  0
TEXT
  5
A77D
  8
0
 10
20.360187898551811
 20
23.522779395137029
 30
0.0
 40
0.09
  1
3"
  7
ROMANT
  0
ENDBLK
  5
A77F
  8
0
  0
BLOCK
  8
0
  2
*U67
 70
     1
 10
0.0
 20
0.0
 30
0.0
  3
*U67
  1

  0
TEXT
  5
A781
  8
0
 10
22.161083533724149
 20
23.705148343932041
 30
0.0
 40
0.1
  1
Document p/n:
  7
ROMANT
  0
TEXT
  5
A782
  8
0
 10
22.213061705620479
 20
23.538072400321301
 30
0.0
 40
0.1
  1
250-1202-001
  7
ROMANT
  0
TEXT
  5
A783
  8
0
 10
22.368450518717339
 20
23.36970041305436
 30
0.0
 40
0.1
  1
Page 1 of 1
  7
ROMANT
  0
ENDBLK
  5
A785
  8
0
  0
BLOCK
  8
0
  2
*U68
 70
     1
 10
0.0
 20
0.0
 30
0.0
  3
*U68
  1

  0
TEXT
  5
A787
  8
0
 10
21.28772662736624
 20
23.00412536282246
 30
0.0
 40
0.09
  1
10
  7
ROMANT
  0
ENDBLK
  5
A789
  8
0
  0
BLOCK
  8
0
  2
*U69
 70
     1
 10
0.0
 20
0.0
 30
0.0
  3
*U69
  1

  0
TEXT
  5
A78B
  8
0
 10
21.363871391048399
 20
23.523147744386691
 30
0.0
 40
0.09
  1
4"
  7
ROMANT
  0
ENDBLK
  5
A78D
  8
0
  0
BLOCK
  8
0
  2
*U70
 70
     1
 10
0.0
 20
0.0
 30
0.0
  3
*U70
  1

  0
TEXT
  5
A7C4
  8
0
 10
-12.74988577505564
 20
-11.14455514167588
 30
0.0
 40
0.11
  1
MEASURE  WITH A RULER.
  7
ROMANT
  0
ENDBLK
  5
A7C6
  8
0
  0
BLOCK
  8
0
  2
*U71
 70
     1
 10
0.0
 20
0.0
 30
0.0
  3
*U71
  1

  0
TEXT
  5
A7DC
  8
SLD-0
 62
     7
 10
30.702272816299999
 20
11.460056782200001
 30
0.0
 40
0.125
  1
.580
 41
0.605
  7
SLDTEXTSTYLE5
  0
ENDBLK
  5
A7DE
  8
0
  0
BLOCK
  8
0
  2
*U72
 70
     1
 10
0.0
 20
0.0
 30
0.0
  3
*U72
  1

  0
TEXT
  5
A7E0
  8
SLD-0
 62
     7
 10
30.702272816299999
 20
10.6913036946
 30
0.0
 40
0.125
  1
.580
 41
0.605
  7
SLDTEXTSTYLE5
  0
ENDBLK
  5
A7E2
  8
0
  0
BLOCK
  8
0
  2
*U73
 70
     1
 10
0.0
 20
0.0
 30
0.0
  3
*U73
  1

  0
TEXT
  5
A7E4
  8
SLD-0
 62
     7
 10
30.702272816299999
 20
14.8033639785
 30
0.0
 40
0.125
  1
.577
 41
0.605
  7
SLDTEXTSTYLE5
  0
ENDBLK
  5
A7E6
  8
0
  0
BLOCK
  8
0
  2
*U74
 70
     1
 10
0.0
 20
0.0
 30
0.0
  3
*U74
  1

  0
TEXT
  5
A7E8
  8
SLD-0
 62
     7
 10
30.654529756199999
 20
13.4561359001
 30
0.0
 40
0.125
  1
2.454
 41
0.605
  7
SLDTEXTSTYLE5
  0
ENDBLK
  5
A7EA
  8
0
  0
BLOCK
  8
0
  2
*U75
 70
     1
 10
0.0
 20
0.0
 30
0.0
  3
*U75
  1

  0
LINE
  5
A7EC
  8
0
  6
BYBLOCK
 10
20.515502975804768
 20
22.159942836828051
 30
0.0
 11
20.875502975804771
 21
22.159942836828051
 31
0.0
  0
POLYLINE
  5
A7ED
  8
0
  6
BYBLOCK
 66
     1
 10
0.0
 20
0.0
 30
0.0
  0
VERTEX
  5
A7EE
  8
0
  6
BYBLOCK
 10
19.639574533068991
 20
22.556822141999461
 30
0.0
  0
VERTEX
  5
A7EF
  8
0
  6
BYBLOCK
 10
20.515502975804768
 20
22.159942836828051
 30
0.0
  0
SEQEND
  5
A7F0
  8
0
  6
BYBLOCK
  0
SOLID
  5
A7F1
  8
0
 10
19.627193288757422
 20
22.529496242393101
 30
0.0
 11
19.475619135430769
 21
22.631109607868851
 31
0.0
 12
19.65195577738055
 22
22.58414804160584
 32
0.0
 13
19.65195577738055
 23
22.58414804160584
 33
0.0
  0
ENDBLK
  5
A7F3
  8
0
  0
BLOCK
  8
0
  2
*U76
 70
     1
 10
0.0
 20
0.0
 30
0.0
  3
*U76
  1

  0
TEXT
  5
A7F5
  8
0
 10
20.929627538137591
 20
22.24368961674994
 30
0.0
 40
0.1
  1
CENTER MARK SHOWS POSITION
  7
ROMANT
  0
TEXT
  5
A7F6
  8
0
 10
20.92546655587293
 20
22.075249416658991
 30
0.0
 40
0.1
  1
FOR DRYWALL  ANCHOR INSTALLATION
  7
ROMANT
  0
ENDBLK
  5
A7F8
  8
0
  0
BLOCK
  8
0
  2
*U77
 70
     1
 10
0.0
 20
0.0
 30
0.0
  3
*U77
  1

  0
LINE
  5
A7FA
  8
0
  6
BYBLOCK
 10
20.515502975804768
 20
16.759602898331821
 30
0.0
 11
20.875502975804771
 21
16.759602898331821
 31
0.0
  0
POLYLINE
  5
A7FB
  8
0
  6
BYBLOCK
 66
     1
 10
0.0
 20
0.0
 30
0.0
  0
VERTEX
  5
A7FC
  8
0
  6
BYBLOCK
 10
19.641931058370321
 20
16.397959766097792
 30
0.0
  0
VERTEX
  5
A7FD
  8
0
  6
BYBLOCK
 10
20.515502975804768
 20
16.759602898331821
 30
0.0
  0
SEQEND
  5
A7FE
  8
0
  6
BYBLOCK
  0
SOLID
  5
A7FF
  8
0
 10
19.65340608474181
 20
16.370241112274531
 30
0.0
 11
19.475619135430769
 21
16.329109607868851
 31
0.0
 12
19.630456031998829
 22
16.425678419921049
 32
0.0
 13
19.630456031998829
 23
16.425678419921049
 33
0.0
  0
ENDBLK
  5
A801
  8
0
  0
BLOCK
  8
0
  2
*U78
 70
     1
 10
0.0
 20
0.0
 30
0.0
  3
*U78
  1

  0
TEXT
  5
A803
  8
0
 10
20.923264029874051
 20
16.7161567748526
 30
0.0
 40
0.1
  1
CENTER MARK SHOWS POSITION
  7
ROMANT
  0
TEXT
  5
A804
  8
0
 10
20.919103047609379
 20
16.547716574761651
 30
0.0
 40
0.1
  1
FOR DRYWALL  ANCHOR INSTALLATION
  7
ROMANT
  0
ENDBLK
  5
A806
  8
0
  0
BLOCK
  8
0
  2
*U79
 70
     1
 10
0.0
 20
0.0
 30
0.0
  3
*U79
  1

  0
LINE
  5
A811
  8
0
  6
BYBLOCK
 10
-11.7497894903717
 20
-10.766782089463691
 30
0.0
 11
-11.389789490371699
 21
-10.766782089463691
 31
0.0
  0
POLYLINE
  5
A812
  8
0
  6
BYBLOCK
 66
     1
 10
0.0
 20
0.0
 30
0.0
  0
VERTEX
  5
A813
  8
0
  6
BYBLOCK
 10
-12.623361407806151
 20
-11.12842522169772
 30
0.0
  0
VERTEX
  5
A814
  8
0
  6
BYBLOCK
 10
-11.7497894903717
 20
-10.766782089463691
 30
0.0
  0
SEQEND
  5
A815
  8
0
  6
BYBLOCK
  0
SOLID
  5
A816
  8
0
 10
-12.61188638143466
 20
-11.15614387552098
 30
0.0
 11
-12.7896733307457
 21
-11.19727537992666
 31
0.0
 12
-12.63483643417764
 22
-11.100706567874459
 32
0.0
 13
-12.63483643417764
 23
-11.100706567874459
 33
0.0
  0
ENDBLK
  5
A818
  8
0
  0
BLOCK
  8
0
  2
*U80
 70
     1
 10
0.0
 20
0.0
 30
0.0
  3
*U80
  1

  0
TEXT
  5
A81A
  8
0
 10
-11.34202843630243
 20
-10.81022821294291
 30
0.0
 40
0.1
  1
CENTER MARK SHOWS POSITION
  7
ROMANT
  0
TEXT
  5
A81B
  8
0
 10
-11.3461894185671
 20
-10.97866841303386
 30
0.0
 40
0.1
  1
FOR DRYWALL  ANCHOR INSTALLATION
  7
ROMANT
  0
ENDBLK
  5
A81D
  8
0
  0
BLOCK
  8
0
  2
*U81
 70
     1
 10
0.0
 20
0.0
 30
0.0
  3
*U81
  1

  0
LINE
  5
A81F
  8
0
  6
BYBLOCK
 10
-11.7497894903717
 20
-10.766782089463691
 30
0.0
 11
-11.389789490371699
 21
-10.766782089463691
 31
0.0
  0
POLYLINE
  5
A820
  8
0
  6
BYBLOCK
 66
     1
 10
0.0
 20
0.0
 30
0.0
  0
VERTEX
  5
A821
  8
0
  6
BYBLOCK
 10
-12.623361407806151
 20
-11.12842522169772
 30
0.0
  0
VERTEX
  5
A822
  8
0
  6
BYBLOCK
 10
-11.7497894903717
 20
-10.766782089463691
 30
0.0
  0
SEQEND
  5
A823
  8
0
  6
BYBLOCK
  0
SOLID
  5
A824
  8
0
 10
-12.61188638143466
 20
-11.15614387552098
 30
0.0
 11
-12.7896733307457
 21
-11.19727537992666
 31
0.0
 12
-12.63483643417764
 22
-11.100706567874459
 32
0.0
 13
-12.63483643417764
 23
-11.100706567874459
 33
0.0
  0
ENDBLK
  5
A826
  8
0
  0
BLOCK
  8
0
  2
*U82
 70
     1
 10
0.0
 20
0.0
 30
0.0
  3
*U82
  1

  0
TEXT
  5
A828
  8
0
 10
-11.34202843630243
 20
-10.81022821294291
 30
0.0
 40
0.1
  1
CENTER MARK SHOWS POSITION
  7
ROMANT
  0
TEXT
  5
A829
  8
0
 10
-11.3461894185671
 20
-10.97866841303386
 30
0.0
 40
0.1
  1
FOR DRYWALL  ANCHOR INSTALLATION
  7
ROMANT
  0
ENDBLK
  5
A82B
  8
0
  0
BLOCK
  8
0
  2
*U83
 70
     1
 10
0.0
 20
0.0
 30
0.0
  3
*U83
  1

  0
LINE
  5
A82D
  8
0
  6
BYBLOCK
 10
20.843036651432111
 20
18.395363809609972
 30
0.0
 11
21.203036651432111
 21
18.395363809609972
 31
0.0
  0
POLYLINE
  5
A82E
  8
0
  6
BYBLOCK
 66
     1
 10
0.0
 20
0.0
 30
0.0
  0
VERTEX
  5
A82F
  8
0
  6
BYBLOCK
 10
19.969464733997661
 20
18.033720677375939
 30
0.0
  0
VERTEX
  5
A830
  8
0
  6
BYBLOCK
 10
20.843036651432111
 20
18.395363809609972
 30
0.0
  0
SEQEND
  5
A831
  8
0
  6
BYBLOCK
  0
SOLID
  5
A832
  8
0
 10
19.98093976036915
 20
18.006002023552679
 30
0.0
 11
19.803152811058109
 21
17.964870519146999
 31
0.0
 12
19.957989707626169
 22
18.0614393311992
 32
0.0
 13
19.957989707626169
 23
18.0614393311992
 33
0.0
  0
ENDBLK
  5
A834
  8
0
  0
BLOCK
  8
0
  2
*U84
 70
     1
 10
0.0
 20
0.0
 30
0.0
  3
*U84
  1

  0
TEXT
  5
A836
  8
0
 10
21.246636723236719
 20
18.351917686130751
 30
0.0
 40
0.1
  1
FOR REFERENCE ONLY
  7
ROMANT
  0
TEXT
  5
A837
  8
0
 10
21.24745527712485
 20
18.183477486039799
 30
0.0
 40
0.1
  1
RETRACT OPENING POSITION
  7
ROMANT
  0
ENDBLK
  5
A839
  8
0
  0
ENDSEC
  0
SECTION
  2
ENTITIES
  0
TEXT
  5
26D
  8
0
 62
     7
 10
2.8193905273639381
 20
1.424539084913635
 30
0.0
 40
0.075
  1

  7
ROMAND
 72
     1
 11
2.8193905273639381
 21
1.424539084913635
 31
0.0
  0
TEXT
  5
26E
  8
0
 62
     7
 10
6.0346231273639379
 20
1.045917284913636
 30
0.0
 40
0.05
  1

  7
SIMPLEX
  0
TEXT
  5
1073
  8
0
 62
     7
 10
20.60083517808302
 20
23.61366840073142
 30
0.0
 40
0.075
  1

  7
ROMAND
 72
     1
 11
20.60083517808302
 21
23.61366840073142
 31
0.0
  0
TEXT
  5
1074
  8
0
 62
     7
 10
23.816067778083021
 20
23.235046600731419
 30
0.0
 40
0.05
  1

  7
SIMPLEX
  0
TEXT
  5
108F
  8
0
 62
     7
 10
42.442072288020952
 20
28.666939291446809
 30
0.0
 40
0.075
  1

  7
ROMAND
 72
     1
 11
42.442072288020952
 21
28.666939291446809
 31
0.0
  0
TEXT
  5
1090
  8
0
 62
     7
 10
45.657304888020953
 20
28.288317491446811
 30
0.0
 40
0.05
  1

  7
SIMPLEX
  0
INSERT
  5
2101
  8
TITLE
  2
$2
 10
132.0765149107182
 20
58.199292942366363
 30
0.0
  0
INSERT
  5
2102
  8
TITLE
  2
$34
 10
137.12362049173419
 20
60.560885657843563
 30
0.0
  0
INSERT
  5
2103
  8
0
  2
$2
 10
135.89236860785999
 20
60.048082670006508
 30
0.0
  0
INSERT
  5
2104
  8
0
  2
$2
 10
121.5347507166899
 20
54.849954746754307
 30
0.0
  0
INSERT
  5
2105
  8
0
  2
$2
 10
156.5391766689674
 20
75.828687240309051
 30
0.0
  0
INSERT
  5
2106
  8
0
  2
$2
 10
155.83917666896741
 20
75.828687240309051
 30
0.0
  0
INSERT
  5
2107
  8
0
  2
$2
 10
154.4191766689674
 20
75.828687240309051
 30
0.0
  0
INSERT
  5
2108
  8
0
  2
$2
 10
153.71417666896741
 20
75.828687240309051
 30
0.0
  0
INSERT
  5
2109
  8
0
  2
$30
 10
153.0041766689674
 20
75.738687240309048
 30
0.0
  0
INSERT
  5
210A
  8
0
  2
$34
 10
158.93917666896741
 20
72.408687240309064
 30
0.0
  0
INSERT
  5
210B
  8
0
  2
$30
 10
153.0041766689674
 20
75.898687240309044
 30
0.0
  0
INSERT
  5
210C
  8
0
  2
$30
 10
153.0041766689674
 20
75.858687240309052
 30
0.0
  0
INSERT
  5
210D
  8
0
  2
$30
 10
153.0041766689674
 20
75.81868724030906
 30
0.0
  0
INSERT
  5
210E
  8
0
  2
$30
 10
153.0041766689674
 20
75.778687240309054
 30
0.0
  0
INSERT
  5
210F
  8
0
  2
$30
 10
157.26417666896751
 20
75.738687240309048
 30
0.0
  0
INSERT
  5
2110
  8
0
  2
$30
 10
157.26417666896751
 20
75.778687240309054
 30
0.0
  0
INSERT
  5
2111
  8
0
  2
$30
 10
157.26417666896751
 20
75.81868724030906
 30
0.0
  0
INSERT
  5
2112
  8
0
  2
$30
 10
157.26417666896751
 20
75.858687240309052
 30
0.0
  0
INSERT
  5
2113
  8
0
  2
$30
 10
157.26417666896751
 20
75.898687240309044
 30
0.0
  0
INSERT
  5
2114
  8
0
  2
$30
 10
153.0041766689674
 20
74.258687240309044
 30
0.0
  0
INSERT
  5
2115
  8
0
  2
$30
 10
153.0041766689674
 20
74.29868724030905
 30
0.0
  0
INSERT
  5
2116
  8
0
  2
$30
 10
153.0041766689674
 20
74.218687240309066
 30
0.0
  0
INSERT
  5
2117
  8
0
  2
$30
 10
153.0041766689674
 20
74.178687240309046
 30
0.0
  0
INSERT
  5
2118
  8
0
  2
$30
 10
153.0041766689674
 20
74.338687240309071
 30
0.0
  0
INSERT
  5
2119
  8
0
  2
$30
 10
151.9741766689674
 20
73.668687240309055
 30
0.0
  0
INSERT
  5
211A
  8
0
  2
$30
 10
151.93417666896741
 20
73.668687240309055
 30
0.0
  0
INSERT
  5
211B
  8
0
  2
$30
 10
151.89417666896739
 20
73.668687240309055
 30
0.0
  0
INSERT
  5
211C
  8
0
  2
$30
 10
151.8541766689674
 20
73.668687240309055
 30
0.0
  0
INSERT
  5
211D
  8
0
  2
$30
 10
151.81417666896741
 20
73.668687240309055
 30
0.0
  0
INSERT
  5
211E
  8
0
  2
$34
 10
152.83917666896741
 20
72.408687240309064
 30
0.0
  0
TEXT
  5
211F
  8
0
 62
     7
 10
199.56227237520429
 20
86.022400295098805
 30
0.0
 40
0.05
  1

  7
SIMPLEX
  0
TEXT
  5
2120
  8
0
 62
     7
 10
196.34703977520431
 20
86.401022095098824
 30
0.0
 40
0.075
  1

  7
ROMAND
 72
     1
 11
196.34703977520431
 21
86.401022095098824
 31
0.0
  0
TEXT
  5
2121
  8
0
 62
     7
 10
177.72103526526641
 20
80.969129404383423
 30
0.0
 40
0.05
  1

  7
SIMPLEX
  0
TEXT
  5
2122
  8
0
 62
     7
 10
174.5058026652664
 20
81.347751204383428
 30
0.0
 40
0.075
  1

  7
ROMAND
 72
     1
 11
174.5058026652664
 21
81.347751204383428
 31
0.0
  0
TEXT
  5
2123
  8
0
 62
     7
 10
151.8045690228675
 20
64.321381629870189
 30
0.0
 40
0.05
  1

  7
SIMPLEX
  0
TEXT
  5
2124
  8
0
 62
     7
 10
148.58933642286749
 20
64.700003429870179
 30
0.0
 40
0.075
  1

  7
ROMAND
 72
     1
 11
148.58933642286749
 21
64.700003429870179
 31
0.0
  0
TEXT
  5
2125
  8
0
 62
     7
 10
158.33942309178639
 20
61.749840893154861
 30
0.0
 40
0.05
  1

  7
SIMPLEX
  0
TEXT
  5
2126
  8
0
 62
     7
 10
155.12419049178641
 20
62.128462693154873
 30
0.0
 40
0.075
  1

  7
ROMAND
 72
     1
 11
155.12419049178641
 21
62.128462693154873
 31
0.0
  0
TEXT
  5
2127
  8
0
 62
     7
 10
136.49818598184851
 20
56.696570002439472
 30
0.0
 40
0.05
  1

  7
SIMPLEX
  0
TEXT
  5
2128
  8
0
 62
     7
 10
133.2829533818485
 20
57.075191802439491
 30
0.0
 40
0.075
  1

  7
ROMAND
 72
     1
 11
133.2829533818485
 21
57.075191802439491
 31
0.0
  0
INSERT
  5
2129
  8
0
  2
$2
 10
137.9433250409607
 20
63.028137930012832
 30
0.0
 41
0.7507517063628413
 42
0.7507517063628413
 43
0.7507517063628413
  0
INSERT
  5
212A
  8
0
  2
$2
 10
137.41779884650671
 20
63.028137930012832
 30
0.0
 41
0.7507517063628413
 42
0.7507517063628413
 43
0.7507517063628413
  0
INSERT
  5
212B
  8
0
  2
$2
 10
136.35173142347151
 20
63.028137930012832
 30
0.0
 41
0.7507517063628413
 42
0.7507517063628413
 43
0.7507517063628413
  0
INSERT
  5
212C
  8
0
  2
$2
 10
135.8224514704857
 20
63.028137930012832
 30
0.0
 41
0.7507517063628413
 42
0.7507517063628413
 43
0.7507517063628413
  0
INSERT
  5
212D
  8
0
  2
$30
 10
135.28941775896811
 20
62.960570276440173
 30
0.0
 41
0.7507517063628413
 42
0.7507517063628413
 43
0.7507517063628413
  0
INSERT
  5
212E
  8
0
  2
$34
 10
139.7451291362315
 20
60.4605670942519
 30
0.0
 41
0.7507517063628413
 42
0.7507517063628413
 43
0.7507517063628413
  0
INSERT
  5
212F
  8
0
  2
$30
 10
135.28941775896811
 20
63.080690549458232
 30
0.0
 41
0.7507517063628413
 42
0.7507517063628413
 43
0.7507517063628413
  0
INSERT
  5
2130
  8
0
  2
$30
 10
135.28941775896811
 20
63.050660481203707
 30
0.0
 41
0.7507517063628413
 42
0.7507517063628413
 43
0.7507517063628413
  0
INSERT
  5
2131
  8
0
  2
$30
 10
135.28941775896811
 20
63.020630412949203
 30
0.0
 41
0.7507517063628413
 42
0.7507517063628413
 43
0.7507517063628413
  0
INSERT
  5
2132
  8
0
  2
$30
 10
135.28941775896811
 20
62.990600344694677
 30
0.0
 41
0.7507517063628413
 42
0.7507517063628413
 43
0.7507517063628413
  0
INSERT
  5
2133
  8
0
  2
$30
 10
138.48762002807379
 20
62.960570276440173
 30
0.0
 41
0.7507517063628413
 42
0.7507517063628413
 43
0.7507517063628413
  0
INSERT
  5
2134
  8
0
  2
$30
 10
138.48762002807379
 20
62.990600344694677
 30
0.0
 41
0.7507517063628413
 42
0.7507517063628413
 43
0.7507517063628413
  0
INSERT
  5
2135
  8
0
  2
$30
 10
138.48762002807379
 20
63.020630412949203
 30
0.0
 41
0.7507517063628413
 42
0.7507517063628413
 43
0.7507517063628413
  0
INSERT
  5
2136
  8
0
  2
$30
 10
138.48762002807379
 20
63.050660481203707
 30
0.0
 41
0.7507517063628413
 42
0.7507517063628413
 43
0.7507517063628413
  0
INSERT
  5
2137
  8
0
  2
$30
 10
138.48762002807379
 20
63.080690549458232
 30
0.0
 41
0.7507517063628413
 42
0.7507517063628413
 43
0.7507517063628413
  0
INSERT
  5
2138
  8
0
  2
$30
 10
135.28941775896811
 20
61.849457751023166
 30
0.0
 41
0.7507517063628413
 42
0.7507517063628413
 43
0.7507517063628413
  0
INSERT
  5
2139
  8
0
  2
$30
 10
135.28941775896811
 20
61.879487819277678
 30
0.0
 41
0.7507517063628413
 42
0.7507517063628413
 43
0.7507517063628413
  0
INSERT
  5
213A
  8
0
  2
$30
 10
135.28941775896811
 20
61.819427682768648
 30
0.0
 41
0.7507517063628413
 42
0.7507517063628413
 43
0.7507517063628413
  0
INSERT
  5
213B
  8
0
  2
$30
 10
135.28941775896811
 20
61.789397614514129
 30
0.0
 41
0.7507517063628413
 42
0.7507517063628413
 43
0.7507517063628413
  0
INSERT
  5
213C
  8
0
  2
$30
 10
135.28941775896811
 20
61.909517887532203
 30
0.0
 41
0.7507517063628413
 42
0.7507517063628413
 43
0.7507517063628413
  0
INSERT
  5
213D
  8
0
  2
$30
 10
134.5161435014144
 20
61.40651424426909
 30
0.0
 41
0.7507517063628413
 42
0.7507517063628413
 43
0.7507517063628413
  0
INSERT
  5
213E
  8
0
  2
$30
 10
134.4861134331598
 20
61.40651424426909
 30
0.0
 41
0.7507517063628413
 42
0.7507517063628413
 43
0.7507517063628413
  0
INSERT
  5
213F
  8
0
  2
$30
 10
134.45608336490531
 20
61.40651424426909
 30
0.0
 41
0.7507517063628413
 42
0.7507517063628413
 43
0.7507517063628413
  0
INSERT
  5
2140
  8
0
  2
$30
 10
134.42605329665079
 20
61.40651424426909
 30
0.0
 41
0.7507517063628413
 42
0.7507517063628413
 43
0.7507517063628413
  0
INSERT
  5
2141
  8
0
  2
$30
 10
134.3960232283963
 20
61.40651424426909
 30
0.0
 41
0.7507517063628413
 42
0.7507517063628413
 43
0.7507517063628413
  0
INSERT
  5
2142
  8
0
  2
$34
 10
135.1655437274182
 20
60.4605670942519
 30
0.0
 41
0.7507517063628413
 42
0.7507517063628413
 43
0.7507517063628413
  0
TEXT
  5
2143
  8
0
 62
     7
 10
170.24298755542989
 20
70.681085400069406
 30
0.0
 40
0.0375375853181421
  1

  7
SIMPLEX
  0
TEXT
  5
2144
  8
0
 62
     7
 10
167.82914619462639
 20
70.965336362485573
 30
0.0
 40
0.0563063779772131
  1

  7
ROMAND
 72
     1
 11
167.82914619462639
 21
70.965336362485573
 31
0.0
  0
TEXT
  5
2145
  8
0
 62
     7
 10
153.8456415260685
 20
66.887333656151156
 30
0.0
 40
0.0375375853181421
  1

  7
SIMPLEX
  0
TEXT
  5
2146
  8
0
 62
     7
 10
151.43180016526509
 20
67.171584618567323
 30
0.0
 40
0.0563063779772131
  1

  7
ROMAND
 72
     1
 11
151.43180016526509
 21
67.171584618567323
 31
0.0
  0
TEXT
  5
2147
  8
0
 62
     7
 10
134.38881027169259
 20
54.389008607337139
 30
0.0
 40
0.0375375853181421
  1

  7
SIMPLEX
  0
TEXT
  5
2148
  8
0
 62
     7
 10
131.9749689108892
 20
54.673259569753313
 30
0.0
 40
0.0563063779772131
  1

  7
ROMAND
 72
     1
 11
131.9749689108892
 21
54.673259569753313
 31
0.0
  0
TEXT
  5
2149
  8
0
 62
     7
 10
139.29486311476569
 20
52.458420011266561
 30
0.0
 40
0.0375375853181421
  1

  7
SIMPLEX
  0
TEXT
  5
214A
  8
0
 62
     7
 10
136.88102175396219
 20
52.742670973682728
 30
0.0
 40
0.0563063779772131
  1

  7
ROMAND
 72
     1
 11
136.88102175396219
 21
52.742670973682728
 31
0.0
  0
TEXT
  5
214B
  8
0
 62
     7
 10
122.8975170854043
 20
48.664668267348297
 30
0.0
 40
0.0375375853181421
  1

  7
SIMPLEX
  0
TEXT
  5
214C
  8
0
 62
     7
 10
120.4836757246009
 20
48.948919229764478
 30
0.0
 40
0.0563063779772131
  1

  7
ROMAND
 72
     1
 11
120.4836757246009
 21
48.948919229764478
 31
0.0
  0
TEXT
  5
214D
  8
0
 62
     7
 10
123.0004181310025
 20
53.747666104141963
 30
0.0
 40
0.05
  1

  7
SIMPLEX
  0
TEXT
  5
214E
  8
0
 62
     7
 10
119.7851855310025
 20
54.126287904141961
 30
0.0
 40
0.075
  1

  7
ROMAND
 72
     1
 11
119.7851855310025
 21
54.126287904141961
 31
0.0
  0
INSERT
  5
214F
  8
0
  2
$2
 10
152.77143354356579
 20
69.931756733384219
 30
0.0
  0
INSERT
  5
2150
  8
0
  2
$2
 10
152.0714335435658
 20
69.931756733384219
 30
0.0
  0
INSERT
  5
2151
  8
0
  2
$2
 10
150.65143354356579
 20
69.931756733384219
 30
0.0
  0
INSERT
  5
2152
  8
0
  2
$2
 10
149.9464335435658
 20
69.931756733384219
 30
0.0
  0
INSERT
  5
2153
  8
0
  2
$30
 10
149.23643354356579
 20
69.841756733384216
 30
0.0
  0
INSERT
  5
2154
  8
0
  2
$34
 10
155.1714335435658
 20
66.511756733384232
 30
0.0
  0
INSERT
  5
2155
  8
0
  2
$30
 10
149.23643354356579
 20
70.001756733384212
 30
0.0
  0
INSERT
  5
2156
  8
0
  2
$30
 10
149.23643354356579
 20
69.96175673338422
 30
0.0
  0
INSERT
  5
2157
  8
0
  2
$30
 10
149.23643354356579
 20
69.921756733384214
 30
0.0
  0
INSERT
  5
2158
  8
0
  2
$30
 10
149.23643354356579
 20
69.881756733384208
 30
0.0
  0
INSERT
  5
2159
  8
0
  2
$30
 10
153.49643354356579
 20
69.841756733384216
 30
0.0
  0
INSERT
  5
215A
  8
0
  2
$30
 10
153.49643354356579
 20
69.881756733384208
 30
0.0
  0
INSERT
  5
215B
  8
0
  2
$30
 10
153.49643354356579
 20
69.921756733384214
 30
0.0
  0
INSERT
  5
215C
  8
0
  2
$30
 10
153.49643354356579
 20
69.96175673338422
 30
0.0
  0
INSERT
  5
215D
  8
0
  2
$30
 10
153.49643354356579
 20
70.001756733384212
 30
0.0
  0
INSERT
  5
215E
  8
0
  2
$30
 10
149.23643354356579
 20
68.361756733384226
 30
0.0
  0
INSERT
  5
215F
  8
0
  2
$30
 10
149.23643354356579
 20
68.401756733384204
 30
0.0
  0
INSERT
  5
2160
  8
0
  2
$30
 10
149.23643354356579
 20
68.321756733384206
 30
0.0
  0
INSERT
  5
2161
  8
0
  2
$30
 10
149.23643354356579
 20
68.281756733384213
 30
0.0
  0
INSERT
  5
2162
  8
0
  2
$30
 10
149.23643354356579
 20
68.44175673338421
 30
0.0
  0
INSERT
  5
2163
  8
0
  2
$30
 10
148.20643354356579
 20
67.771756733384223
 30
0.0
  0
INSERT
  5
2164
  8
0
  2
$30
 10
148.1664335435658
 20
67.771756733384223
 30
0.0
  0
INSERT
  5
2165
  8
0
  2
$30
 10
148.12643354356581
 20
67.771756733384223
 30
0.0
  0
INSERT
  5
2166
  8
0
  2
$30
 10
148.08643354356579
 20
67.771756733384223
 30
0.0
  0
INSERT
  5
2167
  8
0
  2
$30
 10
148.0464335435658
 20
67.771756733384223
 30
0.0
  0
INSERT
  5
2168
  8
0
  2
$34
 10
149.0714335435658
 20
66.511756733384232
 30
0.0
  0
TEXT
  5
2169
  8
0
 62
     7
 10
195.79452924980271
 20
80.125469788173973
 30
0.0
 40
0.05
  1

  7
SIMPLEX
  0
TEXT
  5
216A
  8
0
 62
     7
 10
192.57929664980259
 20
80.504091588174006
 30
0.0
 40
0.075
  1

  7
ROMAND
 72
     1
 11
192.57929664980259
 21
80.504091588174006
 31
0.0
  0
TEXT
  5
216B
  8
0
 62
     7
 10
173.95329213986469
 20
75.072198897458577
 30
0.0
 40
0.05
  1

  7
SIMPLEX
  0
TEXT
  5
216C
  8
0
 62
     7
 10
170.73805953986471
 20
75.450820697458553
 30
0.0
 40
0.075
  1

  7
ROMAND
 72
     1
 11
170.73805953986471
 21
75.450820697458553
 31
0.0
  0
TEXT
  5
216D
  8
0
 62
     7
 10
148.03682589746589
 20
58.424451122945342
 30
0.0
 40
0.05
  1

  7
SIMPLEX
  0
TEXT
  5
216E
  8
0
 62
     7
 10
144.82159329746591
 20
58.80307292294534
 30
0.0
 40
0.075
  1

  7
ROMAND
 72
     1
 11
144.82159329746591
 21
58.80307292294534
 31
0.0
  0
TEXT
  5
216F
  8
0
 62
     7
 10
154.57167996638481
 20
55.852910386230029
 30
0.0
 40
0.05
  1

  7
SIMPLEX
  0
TEXT
  5
2170
  8
0
 62
     7
 10
151.3564473663848
 20
56.231532186230027
 30
0.0
 40
0.075
  1

  7
ROMAND
 72
     1
 11
151.3564473663848
 21
56.231532186230027
 31
0.0
  0
TEXT
  5
2171
  8
0
 62
     7
 10
132.7304428564469
 20
50.79963949551464
 30
0.0
 40
0.05
  1

  7
SIMPLEX
  0
TEXT
  5
2172
  8
0
 62
     7
 10
129.51521025644681
 20
51.178261295514638
 30
0.0
 40
0.075
  1

  7
ROMAND
 72
     1
 11
129.51521025644681
 21
51.178261295514638
 31
0.0
  0
INSERT
  5
2173
  8
0
  2
$2
 10
121.1931537164287
 20
57.57712459373716
 30
0.0
  0
INSERT
  5
2174
  8
0
  2
$2
 10
120.49315371642869
 20
57.57712459373716
 30
0.0
  0
INSERT
  5
2175
  8
0
  2
$2
 10
119.07315371642871
 20
57.57712459373716
 30
0.0
  0
INSERT
  5
2176
  8
0
  2
$2
 10
118.36815371642869
 20
57.57712459373716
 30
0.0
  0
INSERT
  5
2177
  8
0
  2
$30
 10
117.6581537164287
 20
57.487124593737157
 30
0.0
  0
INSERT
  5
2178
  8
0
  2
$34
 10
123.5931537164287
 20
54.157124593737159
 30
0.0
  0
INSERT
  5
2179
  8
0
  2
$30
 10
117.6581537164287
 20
57.647124593737153
 30
0.0
  0
INSERT
  5
217A
  8
0
  2
$30
 10
117.6581537164287
 20
57.607124593737161
 30
0.0
  0
INSERT
  5
217B
  8
0
  2
$30
 10
117.6581537164287
 20
57.567124593737162
 30
0.0
  0
INSERT
  5
217C
  8
0
  2
$30
 10
117.6581537164287
 20
57.527124593737149
 30
0.0
  0
INSERT
  5
217D
  8
0
  2
$30
 10
121.91815371642871
 20
57.487124593737157
 30
0.0
  0
INSERT
  5
217E
  8
0
  2
$30
 10
121.91815371642871
 20
57.527124593737149
 30
0.0
  0
INSERT
  5
217F
  8
0
  2
$30
 10
121.91815371642871
 20
57.567124593737162
 30
0.0
  0
INSERT
  5
2180
  8
0
  2
$30
 10
121.91815371642871
 20
57.607124593737161
 30
0.0
  0
INSERT
  5
2181
  8
0
  2
$30
 10
121.91815371642871
 20
57.647124593737153
 30
0.0
  0
INSERT
  5
2182
  8
0
  2
$30
 10
117.6581537164287
 20
56.00712459373716
 30
0.0
  0
INSERT
  5
2183
  8
0
  2
$30
 10
117.6581537164287
 20
56.047124593737159
 30
0.0
  0
INSERT
  5
2184
  8
0
  2
$30
 10
117.6581537164287
 20
55.967124593737161
 30
0.0
  0
INSERT
  5
2185
  8
0
  2
$30
 10
117.6581537164287
 20
55.927124593737148
 30
0.0
  0
INSERT
  5
2186
  8
0
  2
$30
 10
117.6581537164287
 20
56.087124593737158
 30
0.0
  0
INSERT
  5
2187
  8
0
  2
$30
 10
116.6281537164287
 20
55.417124593737157
 30
0.0
  0
INSERT
  5
2188
  8
0
  2
$30
 10
116.58815371642871
 20
55.417124593737157
 30
0.0
  0
INSERT
  5
2189
  8
0
  2
$30
 10
116.5481537164287
 20
55.417124593737157
 30
0.0
  0
INSERT
  5
218A
  8
0
  2
$30
 10
116.50815371642869
 20
55.417124593737157
 30
0.0
  0
INSERT
  5
218B
  8
0
  2
$30
 10
116.4681537164287
 20
55.417124593737157
 30
0.0
  0
INSERT
  5
218C
  8
0
  2
$34
 10
117.49315371642869
 20
54.157124593737159
 30
0.0
  0
TEXT
  5
218D
  8
0
 62
     7
 10
164.21624942266561
 20
67.770837648526907
 30
0.0
 40
0.05
  1

  7
SIMPLEX
  0
TEXT
  5
218E
  8
0
 62
     7
 10
161.0010168226656
 20
68.149459448526898
 30
0.0
 40
0.075
  1

  7
ROMAND
 72
     1
 11
161.0010168226656
 21
68.149459448526898
 31
0.0
  0
TEXT
  5
218F
  8
0
 62
     7
 10
142.37501231272759
 20
62.717566757811511
 30
0.0
 40
0.05
  1

  7
SIMPLEX
  0
TEXT
  5
2190
  8
0
 62
     7
 10
139.15977971272761
 20
63.09618855781153
 30
0.0
 40
0.075
  1

  7
ROMAND
 72
     1
 11
139.15977971272761
 21
63.09618855781153
 31
0.0
  0
TEXT
  5
2191
  8
0
 62
     7
 10
116.45854607032879
 20
46.069818983298283
 30
0.0
 40
0.05
  1

  7
SIMPLEX
  0
TEXT
  5
2192
  8
0
 62
     7
 10
113.2433134703288
 20
46.448440783298267
 30
0.0
 40
0.075
  1

  7
ROMAND
 72
     1
 11
113.2433134703288
 21
46.448440783298267
 31
0.0
  0
INSERT
  5
2193
  8
0
  2
$2
 10
118.8167058517671
 20
54.296076503785358
 30
0.0
  0
INSERT
  5
2194
  8
0
  2
$2
 10
118.11670585176709
 20
54.296076503785358
 30
0.0
  0
INSERT
  5
2195
  8
0
  2
$2
 10
116.69670585176711
 20
54.296076503785358
 30
0.0
  0
INSERT
  5
2196
  8
0
  2
$2
 10
115.99170585176709
 20
54.296076503785358
 30
0.0
  0
INSERT
  5
2197
  8
0
  2
$30
 10
115.2817058517671
 20
54.206076503785361
 30
0.0
  0
INSERT
  5
2198
  8
0
  2
$34
 10
121.2167058517671
 20
50.87607650378537
 30
0.0
  0
INSERT
  5
2199
  8
0
  2
$30
 10
115.2817058517671
 20
54.366076503785372
 30
0.0
  0
INSERT
  5
219A
  8
0
  2
$30
 10
115.2817058517671
 20
54.326076503785352
 30
0.0
  0
INSERT
  5
219B
  8
0
  2
$30
 10
115.2817058517671
 20
54.286076503785367
 30
0.0
  0
INSERT
  5
219C
  8
0
  2
$30
 10
115.2817058517671
 20
54.246076503785361
 30
0.0
  0
INSERT
  5
219D
  8
0
  2
$30
 10
119.54170585176711
 20
54.206076503785361
 30
0.0
  0
INSERT
  5
219E
  8
0
  2
$30
 10
119.54170585176711
 20
54.246076503785361
 30
0.0
  0
INSERT
  5
219F
  8
0
  2
$30
 10
119.54170585176711
 20
54.286076503785367
 30
0.0
  0
INSERT
  5
21A0
  8
0
  2
$30
 10
119.54170585176711
 20
54.326076503785352
 30
0.0
  0
INSERT
  5
21A1
  8
0
  2
$30
 10
119.54170585176711
 20
54.366076503785372
 30
0.0
  0
INSERT
  5
21A2
  8
0
  2
$30
 10
115.2817058517671
 20
52.726076503785357
 30
0.0
  0
INSERT
  5
21A3
  8
0
  2
$30
 10
115.2817058517671
 20
52.766076503785371
 30
0.0
  0
INSERT
  5
21A4
  8
0
  2
$30
 10
115.2817058517671
 20
52.686076503785358
 30
0.0
  0
INSERT
  5
21A5
  8
0
  2
$30
 10
115.2817058517671
 20
52.646076503785359
 30
0.0
  0
INSERT
  5
21A6
  8
0
  2
$30
 10
115.2817058517671
 20
52.806076503785363
 30
0.0
  0
INSERT
  5
21A7
  8
0
  2
$30
 10
114.2517058517671
 20
52.136076503785361
 30
0.0
  0
INSERT
  5
21A8
  8
0
  2
$30
 10
114.21170585176711
 20
52.136076503785361
 30
0.0
  0
INSERT
  5
21A9
  8
0
  2
$30
 10
114.1717058517671
 20
52.136076503785361
 30
0.0
  0
INSERT
  5
21AA
  8
0
  2
$30
 10
114.13170585176709
 20
52.136076503785361
 30
0.0
  0
INSERT
  5
21AB
  8
0
  2
$30
 10
114.0917058517671
 20
52.136076503785361
 30
0.0
  0
INSERT
  5
21AC
  8
0
  2
$34
 10
115.11670585176709
 20
50.87607650378537
 30
0.0
  0
TEXT
  5
21AD
  8
0
 62
     7
 10
161.8398015580039
 20
64.489789558575126
 30
0.0
 40
0.05
  1

  7
SIMPLEX
  0
TEXT
  5
21AE
  8
0
 62
     7
 10
158.62456895800401
 20
64.868411358575116
 30
0.0
 40
0.075
  1

  7
ROMAND
 72
     1
 11
158.62456895800401
 21
64.868411358575116
 31
0.0
  0
TEXT
  5
21AF
  8
0
 62
     7
 10
139.99856444806599
 20
59.436518667859723
 30
0.0
 40
0.05
  1

  7
SIMPLEX
  0
TEXT
  5
21B0
  8
0
 62
     7
 10
136.78333184806601
 20
59.815140467859727
 30
0.0
 40
0.075
  1

  7
ROMAND
 72
     1
 11
136.78333184806601
 21
59.815140467859727
 31
0.0
  0
TEXT
  5
21B1
  8
0
 62
     7
 10
114.08209820566719
 20
42.788770893346481
 30
0.0
 40
0.05
  1

  7
SIMPLEX
  0
TEXT
  5
21B2
  8
0
 62
     7
 10
110.8668656056672
 20
43.167392693346478
 30
0.0
 40
0.075
  1

  7
ROMAND
 72
     1
 11
110.8668656056672
 21
43.167392693346478
 31
0.0
  0
TEXT
  5
21B3
  8
0
 62
     7
 10
120.616952274586
 20
40.217230156631167
 30
0.0
 40
0.05
  1

  7
SIMPLEX
  0
TEXT
  5
21B4
  8
0
 62
     7
 10
117.4017196745861
 20
40.595851956631172
 30
0.0
 40
0.075
  1

  7
ROMAND
 72
     1
 11
117.4017196745861
 21
40.595851956631172
 31
0.0
  0
TEXT
  5
21B5
  8
0
 62
     7
 10
98.775715164648133
 20
35.163959265915793
 30
0.0
 40
0.05
  1

  7
SIMPLEX
  0
TEXT
  5
21B6
  8
0
 62
     7
 10
95.56048256464814
 20
35.54258106591579
 30
0.0
 40
0.075
  1

  7
ROMAND
 72
     1
 11
95.56048256464814
 21
35.54258106591579
 31
0.0
  0
INSERT
  5
21B7
  8
0
  2
$2
 10
100.2208542237604
 20
41.495527193489131
 30
0.0
 41
0.7507517063628413
 42
0.7507517063628413
 43
0.7507517063628413
  0
INSERT
  5
21B8
  8
0
  2
$2
 10
99.695328029306395
 20
41.495527193489131
 30
0.0
 41
0.7507517063628413
 42
0.7507517063628413
 43
0.7507517063628413
  0
INSERT
  5
21B9
  8
0
  2
$2
 10
98.629260606271174
 20
41.495527193489131
 30
0.0
 41
0.7507517063628413
 42
0.7507517063628413
 43
0.7507517063628413
  0
INSERT
  5
21BA
  8
0
  2
$2
 10
98.099980653285357
 20
41.495527193489131
 30
0.0
 41
0.7507517063628413
 42
0.7507517063628413
 43
0.7507517063628413
  0
INSERT
  5
21BB
  8
0
  2
$30
 10
97.566946941767739
 20
41.427959539916472
 30
0.0
 41
0.7507517063628413
 42
0.7507517063628413
 43
0.7507517063628413
  0
INSERT
  5
21BC
  8
0
  2
$34
 10
102.02265831903119
 20
38.92795635772822
 30
0.0
 41
0.7507517063628413
 42
0.7507517063628413
 43
0.7507517063628413
  0
INSERT
  5
21BD
  8
0
  2
$30
 10
97.566946941767739
 20
41.548079812934532
 30
0.0
 41
0.7507517063628413
 42
0.7507517063628413
 43
0.7507517063628413
  0
INSERT
  5
21BE
  8
0
  2
$30
 10
97.566946941767739
 20
41.51804974468002
 30
0.0
 41
0.7507517063628413
 42
0.7507517063628413
 43
0.7507517063628413
  0
INSERT
  5
21BF
  8
0
  2
$30
 10
97.566946941767739
 20
41.488019676425502
 30
0.0
 41
0.7507517063628413
 42
0.7507517063628413
 43
0.7507517063628413
  0
INSERT
  5
21C0
  8
0
  2
$30
 10
97.566946941767739
 20
41.457989608170983
 30
0.0
 41
0.7507517063628413
 42
0.7507517063628413
 43
0.7507517063628413
  0
INSERT
  5
21C1
  8
0
  2
$30
 10
100.7651492108734
 20
41.427959539916472
 30
0.0
 41
0.7507517063628413
 42
0.7507517063628413
 43
0.7507517063628413
  0
INSERT
  5
21C2
  8
0
  2
$30
 10
100.7651492108734
 20
41.457989608170983
 30
0.0
 41
0.7507517063628413
 42
0.7507517063628413
 43
0.7507517063628413
  0
INSERT
  5
21C3
  8
0
  2
$30
 10
100.7651492108734
 20
41.488019676425502
 30
0.0
 41
0.7507517063628413
 42
0.7507517063628413
 43
0.7507517063628413
  0
INSERT
  5
21C4
  8
0
  2
$30
 10
100.7651492108734
 20
41.51804974468002
 30
0.0
 41
0.7507517063628413
 42
0.7507517063628413
 43
0.7507517063628413
  0
INSERT
  5
21C5
  8
0
  2
$30
 10
100.7651492108734
 20
41.548079812934532
 30
0.0
 41
0.7507517063628413
 42
0.7507517063628413
 43
0.7507517063628413
  0
INSERT
  5
21C6
  8
0
  2
$30
 10
97.566946941767739
 20
40.316847014499473
 30
0.0
 41
0.7507517063628413
 42
0.7507517063628413
 43
0.7507517063628413
  0
INSERT
  5
21C7
  8
0
  2
$30
 10
97.566946941767739
 20
40.346877082753991
 30
0.0
 41
0.7507517063628413
 42
0.7507517063628413
 43
0.7507517063628413
  0
INSERT
  5
21C8
  8
0
  2
$30
 10
97.566946941767739
 20
40.286816946244961
 30
0.0
 41
0.7507517063628413
 42
0.7507517063628413
 43
0.7507517063628413
  0
INSERT
  5
21C9
  8
0
  2
$30
 10
97.566946941767739
 20
40.25678687799045
 30
0.0
 41
0.7507517063628413
 42
0.7507517063628413
 43
0.7507517063628413
  0
INSERT
  5
21CA
  8
0
  2
$30
 10
97.566946941767739
 20
40.376907151008503
 30
0.0
 41
0.7507517063628413
 42
0.7507517063628413
 43
0.7507517063628413
  0
INSERT
  5
21CB
  8
0
  2
$30
 10
96.793672684214016
 20
39.873903507745389
 30
0.0
 41
0.7507517063628413
 42
0.7507517063628413
 43
0.7507517063628413
  0
INSERT
  5
21CC
  8
0
  2
$30
 10
96.763642615959483
 20
39.873903507745389
 30
0.0
 41
0.7507517063628413
 42
0.7507517063628413
 43
0.7507517063628413
  0
INSERT
  5
21CD
  8
0
  2
$30
 10
96.733612547704965
 20
39.873903507745389
 30
0.0
 41
0.7507517063628413
 42
0.7507517063628413
 43
0.7507517063628413
  0
INSERT
  5
21CE
  8
0
  2
$30
 10
96.703582479450475
 20
39.873903507745389
 30
0.0
 41
0.7507517063628413
 42
0.7507517063628413
 43
0.7507517063628413
  0
INSERT
  5
21CF
  8
0
  2
$30
 10
96.673552411195956
 20
39.873903507745389
 30
0.0
 41
0.7507517063628413
 42
0.7507517063628413
 43
0.7507517063628413
  0
INSERT
  5
21D0
  8
0
  2
$34
 10
97.443072910217865
 20
38.92795635772822
 30
0.0
 41
0.7507517063628413
 42
0.7507517063628413
 43
0.7507517063628413
  0
TEXT
  5
21D1
  8
0
 62
     7
 10
132.5205167382295
 20
49.148474663545713
 30
0.0
 40
0.0375375853181421
  1

  7
SIMPLEX
  0
TEXT
  5
21D2
  8
0
 62
     7
 10
130.10667537742609
 20
49.432725625961879
 30
0.0
 40
0.0563063779772131
  1

  7
ROMAND
 72
     1
 11
130.10667537742609
 21
49.432725625961879
 31
0.0
  0
TEXT
  5
21D3
  8
0
 62
     7
 10
116.1231707088682
 20
45.354722919627463
 30
0.0
 40
0.0375375853181421
  1

  7
SIMPLEX
  0
TEXT
  5
21D4
  8
0
 62
     7
 10
113.7093293480648
 20
45.638973882043622
 30
0.0
 40
0.0563063779772131
  1

  7
ROMAND
 72
     1
 11
113.7093293480648
 21
45.638973882043622
 31
0.0
  0
TEXT
  5
21D5
  8
0
 62
     7
 10
96.666339454492316
 20
32.85639787081346
 30
0.0
 40
0.0375375853181421
  1

  7
SIMPLEX
  0
TEXT
  5
21D6
  8
0
 62
     7
 10
94.252498093688871
 20
33.140648833229619
 30
0.0
 40
0.0563063779772131
  1

  7
ROMAND
 72
     1
 11
94.252498093688871
 21
33.140648833229619
 31
0.0
  0
TEXT
  5
21D7
  8
0
 62
     7
 10
101.5723922975653
 20
30.925809274742871
 30
0.0
 40
0.0375375853181421
  1

  7
SIMPLEX
  0
TEXT
  5
21D8
  8
0
 62
     7
 10
99.158550936761884
 20
31.210060237159041
 30
0.0
 40
0.0563063779772131
  1

  7
ROMAND
 72
     1
 11
99.158550936761884
 21
31.210060237159041
 31
0.0
  0
TEXT
  5
21D9
  8
0
 62
     7
 10
85.175046268203999
 20
27.132057530824621
 30
0.0
 40
0.0375375853181421
  1

  7
SIMPLEX
  0
TEXT
  5
21DA
  8
0
 62
     7
 10
82.761204907400568
 20
27.416308493240781
 30
0.0
 40
0.0563063779772131
  1

  7
ROMAND
 72
     1
 11
82.761204907400568
 21
27.416308493240781
 31
0.0
  0
TEXT
  5
21DB
  8
0
 62
     7
 10
85.27794731380213
 20
32.21505536761827
 30
0.0
 40
0.05
  1

  7
SIMPLEX
  0
TEXT
  5
21DC
  8
0
 62
     7
 10
82.062714713802123
 20
32.593677167618267
 30
0.0
 40
0.075
  1

  7
ROMAND
 72
     1
 11
82.062714713802123
 21
32.593677167618267
 31
0.0
  0
INSERT
  5
21DD
  8
0
  2
$2
 10
99.127309675196713
 20
46.804719691509099
 30
0.0
  0
INSERT
  5
21DE
  8
0
  2
$2
 10
98.42730967519671
 20
46.804719691509099
 30
0.0
  0
INSERT
  5
21DF
  8
0
  2
$2
 10
97.007309675196694
 20
46.804719691509099
 30
0.0
  0
INSERT
  5
21E0
  8
0
  2
$2
 10
96.302309675196696
 20
46.804719691509099
 30
0.0
  0
INSERT
  5
21E1
  8
0
  2
$30
 10
95.592309675196702
 20
46.714719691509103
 30
0.0
  0
INSERT
  5
21E2
  8
0
  2
$34
 10
101.5273096751967
 20
43.38471969150909
 30
0.0
  0
INSERT
  5
21E3
  8
0
  2
$30
 10
95.592309675196702
 20
46.8747196915091
 30
0.0
  0
INSERT
  5
21E4
  8
0
  2
$30
 10
95.592309675196702
 20
46.834719691509093
 30
0.0
  0
INSERT
  5
21E5
  8
0
  2
$30
 10
95.592309675196702
 20
46.794719691509101
 30
0.0
  0
INSERT
  5
21E6
  8
0
  2
$30
 10
95.592309675196702
 20
46.754719691509088
 30
0.0
  0
INSERT
  5
21E7
  8
0
  2
$30
 10
99.852309675196693
 20
46.714719691509103
 30
0.0
  0
INSERT
  5
21E8
  8
0
  2
$30
 10
99.852309675196693
 20
46.754719691509088
 30
0.0
  0
INSERT
  5
21E9
  8
0
  2
$30
 10
99.852309675196693
 20
46.794719691509101
 30
0.0
  0
INSERT
  5
21EA
  8
0
  2
$30
 10
99.852309675196693
 20
46.834719691509093
 30
0.0
  0
INSERT
  5
21EB
  8
0
  2
$30
 10
99.852309675196693
 20
46.8747196915091
 30
0.0
  0
INSERT
  5
21EC
  8
0
  2
$30
 10
95.592309675196702
 20
45.234719691509099
 30
0.0
  0
INSERT
  5
21ED
  8
0
  2
$30
 10
95.592309675196702
 20
45.274719691509091
 30
0.0
  0
INSERT
  5
21EE
  8
0
  2
$30
 10
95.592309675196702
 20
45.194719691509093
 30
0.0
  0
INSERT
  5
21EF
  8
0
  2
$30
 10
95.592309675196702
 20
45.154719691509101
 30
0.0
  0
INSERT
  5
21F0
  8
0
  2
$30
 10
95.592309675196702
 20
45.31471969150909
 30
0.0
  0
INSERT
  5
21F1
  8
0
  2
$30
 10
94.562309675196715
 20
44.644719691509088
 30
0.0
  0
INSERT
  5
21F2
  8
0
  2
$30
 10
94.522309675196695
 20
44.644719691509088
 30
0.0
  0
INSERT
  5
21F3
  8
0
  2
$30
 10
94.482309675196703
 20
44.644719691509088
 30
0.0
  0
INSERT
  5
21F4
  8
0
  2
$30
 10
94.442309675196697
 20
44.644719691509088
 30
0.0
  0
INSERT
  5
21F5
  8
0
  2
$30
 10
94.402309675196705
 20
44.644719691509088
 30
0.0
  0
INSERT
  5
21F6
  8
0
  2
$34
 10
95.427309675196696
 20
43.38471969150909
 30
0.0
  0
TEXT
  5
21F7
  8
0
 62
     7
 10
142.1504053814335
 20
56.998432746298839
 30
0.0
 40
0.05
  1

  7
SIMPLEX
  0
TEXT
  5
21F8
  8
0
 62
     7
 10
138.93517278143349
 20
57.377054546298837
 30
0.0
 40
0.075
  1

  7
ROMAND
 72
     1
 11
138.93517278143349
 21
57.377054546298837
 31
0.0
  0
TEXT
  5
21F9
  8
0
 62
     7
 10
120.30916827149559
 20
51.94516185558345
 30
0.0
 40
0.05
  1

  7
SIMPLEX
  0
TEXT
  5
21FA
  8
0
 62
     7
 10
117.0939356714956
 20
52.323783655583462
 30
0.0
 40
0.075
  1

  7
ROMAND
 72
     1
 11
117.0939356714956
 21
52.323783655583462
 31
0.0
  0
TEXT
  5
21FB
  8
0
 62
     7
 10
94.392702029096782
 20
35.297414081070222
 30
0.0
 40
0.05
  1

  7
SIMPLEX
  0
TEXT
  5
21FC
  8
0
 62
     7
 10
91.177469429096774
 20
35.67603588107022
 30
0.0
 40
0.075
  1

  7
ROMAND
 72
     1
 11
91.177469429096774
 21
35.67603588107022
 31
0.0
  0
TEXT
  5
21FD
  8
0
 62
     7
 10
100.9275560980156
 20
32.725873344354909
 30
0.0
 40
0.05
  1

  7
SIMPLEX
  0
TEXT
  5
21FE
  8
0
 62
     7
 10
97.712323498015664
 20
33.104495144354921
 30
0.0
 40
0.075
  1

  7
ROMAND
 72
     1
 11
97.712323498015664
 21
33.104495144354921
 31
0.0
  0
TEXT
  5
21FF
  8
0
 62
     7
 10
79.086318988077736
 20
27.67260245363952
 30
0.0
 40
0.05
  1

  7
SIMPLEX
  0
TEXT
  5
2200
  8
0
 62
     7
 10
75.871086388077728
 20
28.051224253639521
 30
0.0
 40
0.075
  1

  7
ROMAND
 72
     1
 11
75.871086388077728
 21
28.051224253639521
 31
0.0
  0
INSERT
  5
2201
  8
0
  2
$2
 10
108.32606697473319
 20
38.818961068189438
 30
0.0
 41
1.1399459025597869
 42
1.1399459025597869
 43
1.1399459025597869
  0
INSERT
  5
2202
  8
0
  2
$2
 10
107.5281048429414
 20
38.818961068189438
 30
0.0
 41
1.1399459025597869
 42
1.1399459025597869
 43
1.1399459025597869
  0
INSERT
  5
2203
  8
0
  2
$2
 10
105.9093816613065
 20
38.818961068189438
 30
0.0
 41
1.1399459025597869
 42
1.1399459025597869
 43
1.1399459025597869
  0
INSERT
  5
2204
  8
0
  2
$2
 10
105.10571980000179
 20
38.818961068189438
 30
0.0
 41
1.1399459025597869
 42
1.1399459025597869
 43
1.1399459025597869
  0
INSERT
  5
2205
  8
0
  2
$30
 10
104.2963582091844
 20
38.71636593695905
 30
0.0
 41
1.1399459025597869
 42
1.1399459025597869
 43
1.1399459025597869
  0
INSERT
  5
2206
  8
0
  2
$34
 10
111.06193714087669
 20
34.920346081434957
 30
0.0
 41
1.1399459025597869
 42
1.1399459025597869
 43
1.1399459025597869
  0
INSERT
  5
2207
  8
0
  2
$30
 10
104.2963582091844
 20
38.898757281368617
 30
0.0
 41
1.1399459025597869
 42
1.1399459025597869
 43
1.1399459025597869
  0
INSERT
  5
2208
  8
0
  2
$30
 10
104.2963582091844
 20
38.853159445266229
 30
0.0
 41
1.1399459025597869
 42
1.1399459025597869
 43
1.1399459025597869
  0
INSERT
  5
2209
  8
0
  2
$30
 10
104.2963582091844
 20
38.807561609163841
 30
0.0
 41
1.1399459025597869
 42
1.1399459025597869
 43
1.1399459025597869
  0
INSERT
  5
220A
  8
0
  2
$30
 10
104.2963582091844
 20
38.761963773061439
 30
0.0
 41
1.1399459025597869
 42
1.1399459025597869
 43
1.1399459025597869
  0
INSERT
  5
220B
  8
0
  2
$30
 10
109.15252775408911
 20
38.71636593695905
 30
0.0
 41
1.1399459025597869
 42
1.1399459025597869
 43
1.1399459025597869
  0
INSERT
  5
220C
  8
0
  2
$30
 10
109.15252775408911
 20
38.761963773061439
 30
0.0
 41
1.1399459025597869
 42
1.1399459025597869
 43
1.1399459025597869
  0
INSERT
  5
220D
  8
0
  2
$30
 10
109.15252775408911
 20
38.807561609163841
 30
0.0
 41
1.1399459025597869
 42
1.1399459025597869
 43
1.1399459025597869
  0
INSERT
  5
220E
  8
0
  2
$30
 10
109.15252775408911
 20
38.853159445266229
 30
0.0
 41
1.1399459025597869
 42
1.1399459025597869
 43
1.1399459025597869
  0
INSERT
  5
220F
  8
0
  2
$30
 10
109.15252775408911
 20
38.898757281368617
 30
0.0
 41
1.1399459025597869
 42
1.1399459025597869
 43
1.1399459025597869
  0
INSERT
  5
2210
  8
0
  2
$30
 10
104.2963582091844
 20
37.029246001170563
 30
0.0
 41
1.1399459025597869
 42
1.1399459025597869
 43
1.1399459025597869
  0
INSERT
  5
2211
  8
0
  2
$30
 10
104.2963582091844
 20
37.074843837272958
 30
0.0
 41
1.1399459025597869
 42
1.1399459025597869
 43
1.1399459025597869
  0
INSERT
  5
2212
  8
0
  2
$30
 10
104.2963582091844
 20
36.983648165068168
 30
0.0
 41
1.1399459025597869
 42
1.1399459025597869
 43
1.1399459025597869
  0
INSERT
  5
2213
  8
0
  2
$30
 10
104.2963582091844
 20
36.938050328965787
 30
0.0
 41
1.1399459025597869
 42
1.1399459025597869
 43
1.1399459025597869
  0
INSERT
  5
2214
  8
0
  2
$30
 10
104.2963582091844
 20
37.120441673375353
 30
0.0
 41
1.1399459025597869
 42
1.1399459025597869
 43
1.1399459025597869
  0
INSERT
  5
2215
  8
0
  2
$30
 10
103.1222139295478
 20
36.356677918660289
 30
0.0
 41
1.1399459025597869
 42
1.1399459025597869
 43
1.1399459025597869
  0
INSERT
  5
2216
  8
0
  2
$30
 10
103.07661609344539
 20
36.356677918660289
 30
0.0
 41
1.1399459025597869
 42
1.1399459025597869
 43
1.1399459025597869
  0
INSERT
  5
2217
  8
0
  2
$30
 10
103.03101825734301
 20
36.356677918660289
 30
0.0
 41
1.1399459025597869
 42
1.1399459025597869
 43
1.1399459025597869
  0
INSERT
  5
2218
  8
0
  2
$30
 10
102.9854204212406
 20
36.356677918660289
 30
0.0
 41
1.1399459025597869
 42
1.1399459025597869
 43
1.1399459025597869
  0
INSERT
  5
2219
  8
0
  2
$30
 10
102.9398225851382
 20
36.356677918660289
 30
0.0
 41
1.1399459025597869
 42
1.1399459025597869
 43
1.1399459025597869
  0
INSERT
  5
221A
  8
0
  2
$34
 10
104.108267135262
 20
34.920346081434957
 30
0.0
 41
1.1399459025597869
 42
1.1399459025597869
 43
1.1399459025597869
  0
TEXT
  5
221B
  8
0
 62
     7
 10
157.37006864049559
 20
50.439242496867223
 30
0.0
 40
0.0569972951279894
  1

  7
SIMPLEX
  0
TEXT
  5
221C
  8
0
 62
     7
 10
153.70487741234891
 20
50.870850866397028
 30
0.0
 40
0.0854959426919841
  1

  7
ROMAND
 72
     1
 11
153.70487741234891
 21
50.870850866397028
 31
0.0
  0
TEXT
  5
221D
  8
0
 62
     7
 10
132.47223989018499
 20
44.67878705047157
 30
0.0
 40
0.0569972951279894
  1

  7
SIMPLEX
  0
TEXT
  5
221E
  8
0
 62
     7
 10
128.8070486620384
 20
45.110395420001382
 30
0.0
 40
0.0854959426919841
  1

  7
ROMAND
 72
     1
 11
128.8070486620384
 21
45.110395420001382
 31
0.0
  0
TEXT
  5
221F
  8
0
 62
     7
 10
102.92887038833339
 20
25.70125518806638
 30
0.0
 40
0.0569972951279894
  1

  7
SIMPLEX
  0
TEXT
  5
2220
  8
0
 62
     7
 10
99.263679160186754
 20
26.132863557596188
 30
0.0
 40
0.0854959426919841
  1

  7
ROMAND
 72
     1
 11
99.263679160186754
 21
26.132863557596188
 31
0.0
  0
TEXT
  5
2221
  8
0
 62
     7
 10
110.3782505080236
 20
22.769837861982179
 30
0.0
 40
0.0569972951279894
  1

  7
SIMPLEX
  0
TEXT
  5
2222
  8
0
 62
     7
 10
106.713059279877
 20
23.201446231511991
 30
0.0
 40
0.0854959426919841
  1

  7
ROMAND
 72
     1
 11
106.713059279877
 21
23.201446231511991
 31
0.0
  0
TEXT
  5
2223
  8
0
 62
     7
 10
85.480421757713117
 20
17.009382415586519
 30
0.0
 40
0.0569972951279894
  1

  7
SIMPLEX
  0
TEXT
  5
2224
  8
0
 62
     7
 10
81.815230529566463
 20
17.44099078511633
 30
0.0
 40
0.0854959426919841
  1

  7
ROMAND
 72
     1
 11
81.815230529566463
 21
17.44099078511633
 31
0.0
  0
TEXT
  5
2225
  8
0
 62
     7
 10
73.964425693534253
 20
24.428122951326269
 30
0.0
 40
0.05
  1

  7
SIMPLEX
  0
TEXT
  5
2226
  8
0
 62
     7
 10
70.749193093534245
 20
24.806744751326271
 30
0.0
 40
0.075
  1

  7
TXT
 72
     1
 11
70.749193093534245
 21
24.806744751326271
 31
0.0
  0
INSERT
  5
2227
  8
TITLE
  2
$2
 10
98.334501040482849
 20
48.445988316514693
 30
0.0
  0
INSERT
  5
2228
  8
TITLE
  2
$34
 10
103.3816066214988
 20
50.807581031991887
 30
0.0
  0
INSERT
  5
2229
  8
0
  2
$2
 10
102.1503547376246
 20
50.294778044154853
 30
0.0
  0
INSERT
  5
222A
  8
0
  2
$2
 10
87.792736846454545
 20
45.096650120902638
 30
0.0
  0
INSERT
  5
222B
  8
0
  2
$2
 10
122.797162798732
 20
66.075382614457396
 30
0.0
  0
INSERT
  5
222C
  8
0
  2
$2
 10
122.097162798732
 20
66.075382614457396
 30
0.0
  0
INSERT
  5
222D
  8
0
  2
$2
 10
120.677162798732
 20
66.075382614457396
 30
0.0
  0
INSERT
  5
222E
  8
0
  2
$2
 10
119.972162798732
 20
66.075382614457396
 30
0.0
  0
INSERT
  5
222F
  8
0
  2
$30
 10
119.26216279873201
 20
65.985382614457393
 30
0.0
  0
INSERT
  5
2230
  8
0
  2
$34
 10
125.19716279873199
 20
62.655382614457388
 30
0.0
  0
INSERT
  5
2231
  8
0
  2
$30
 10
119.26216279873201
 20
66.14538261445739
 30
0.0
  0
INSERT
  5
2232
  8
0
  2
$30
 10
119.26216279873201
 20
66.105382614457383
 30
0.0
  0
INSERT
  5
2233
  8
0
  2
$30
 10
119.26216279873201
 20
66.065382614457405
 30
0.0
  0
INSERT
  5
2234
  8
0
  2
$30
 10
119.26216279873201
 20
66.025382614457385
 30
0.0
  0
INSERT
  5
2235
  8
0
  2
$30
 10
123.522162798732
 20
65.985382614457393
 30
0.0
  0
INSERT
  5
2236
  8
0
  2
$30
 10
123.522162798732
 20
66.025382614457385
 30
0.0
  0
INSERT
  5
2237
  8
0
  2
$30
 10
123.522162798732
 20
66.065382614457405
 30
0.0
  0
INSERT
  5
2238
  8
0
  2
$30
 10
123.522162798732
 20
66.105382614457383
 30
0.0
  0
INSERT
  5
2239
  8
0
  2
$30
 10
123.522162798732
 20
66.14538261445739
 30
0.0
  0
INSERT
  5
223A
  8
0
  2
$30
 10
119.26216279873201
 20
64.505382614457403
 30
0.0
  0
INSERT
  5
223B
  8
0
  2
$30
 10
119.26216279873201
 20
64.545382614457395
 30
0.0
  0
INSERT
  5
223C
  8
0
  2
$30
 10
119.26216279873201
 20
64.465382614457411
 30
0.0
  0
INSERT
  5
223D
  8
0
  2
$30
 10
119.26216279873201
 20
64.425382614457391
 30
0.0
  0
INSERT
  5
223E
  8
0
  2
$30
 10
119.26216279873201
 20
64.585382614457373
 30
0.0
  0
INSERT
  5
223F
  8
0
  2
$30
 10
118.23216279873201
 20
63.915382614457393
 30
0.0
  0
INSERT
  5
2240
  8
0
  2
$30
 10
118.192162798732
 20
63.915382614457393
 30
0.0
  0
INSERT
  5
2241
  8
0
  2
$30
 10
118.15216279873199
 20
63.915382614457393
 30
0.0
  0
INSERT
  5
2242
  8
0
  2
$30
 10
118.112162798732
 20
63.915382614457393
 30
0.0
  0
INSERT
  5
2243
  8
0
  2
$30
 10
118.07216279873199
 20
63.915382614457393
 30
0.0
  0
INSERT
  5
2244
  8
0
  2
$34
 10
119.097162798732
 20
62.655382614457388
 30
0.0
  0
TEXT
  5
2245
  8
0
 62
     7
 10
165.8202585049689
 20
76.26909566924715
 30
0.0
 40
0.05
  1

  7
SIMPLEX
  0
TEXT
  5
2246
  8
0
 62
     7
 10
162.6050259049689
 20
76.647717469247141
 30
0.0
 40
0.075
  1

  7
ROMAND
 72
     1
 11
162.6050259049689
 21
76.647717469247141
 31
0.0
  0
TEXT
  5
2247
  8
0
 62
     7
 10
143.979021395031
 20
71.215824778531754
 30
0.0
 40
0.05
  1

  7
SIMPLEX
  0
TEXT
  5
2248
  8
0
 62
     7
 10
140.76378879503091
 20
71.594446578531773
 30
0.0
 40
0.075
  1

  7
ROMAND
 72
     1
 11
140.76378879503091
 21
71.594446578531773
 31
0.0
  0
TEXT
  5
2249
  8
0
 62
     7
 10
118.0625551526321
 20
54.568077004018519
 30
0.0
 40
0.05
  1

  7
SIMPLEX
  0
TEXT
  5
224A
  8
0
 62
     7
 10
114.84732255263209
 20
54.946698804018517
 30
0.0
 40
0.075
  1

  7
ROMAND
 72
     1
 11
114.84732255263209
 21
54.946698804018517
 31
0.0
  0
TEXT
  5
224B
  8
0
 62
     7
 10
124.597409221551
 20
51.996536267303199
 30
0.0
 40
0.05
  1

  7
SIMPLEX
  0
TEXT
  5
224C
  8
0
 62
     7
 10
121.382176621551
 20
52.375158067303197
 30
0.0
 40
0.075
  1

  7
ROMAND
 72
     1
 11
121.382176621551
 21
52.375158067303197
 31
0.0
  0
TEXT
  5
224D
  8
0
 62
     7
 10
102.7561721116131
 20
46.94326537658781
 30
0.0
 40
0.05
  1

  7
SIMPLEX
  0
TEXT
  5
224E
  8
0
 62
     7
 10
99.540939511613104
 20
47.321887176587822
 30
0.0
 40
0.075
  1

  7
ROMAND
 72
     1
 11
99.540939511613104
 21
47.321887176587822
 31
0.0
  0
INSERT
  5
224F
  8
0
  2
$2
 10
104.2013111707253
 20
53.27483330416117
 30
0.0
 41
0.7507517063628413
 42
0.7507517063628413
 43
0.7507517063628413
  0
INSERT
  5
2250
  8
0
  2
$2
 10
103.6757849762713
 20
53.27483330416117
 30
0.0
 41
0.7507517063628413
 42
0.7507517063628413
 43
0.7507517063628413
  0
INSERT
  5
2251
  8
0
  2
$2
 10
102.6097175532361
 20
53.27483330416117
 30
0.0
 41
0.7507517063628413
 42
0.7507517063628413
 43
0.7507517063628413
  0
INSERT
  5
2252
  8
0
  2
$2
 10
102.08043760025031
 20
53.27483330416117
 30
0.0
 41
0.7507517063628413
 42
0.7507517063628413
 43
0.7507517063628413
  0
INSERT
  5
2253
  8
0
  2
$30
 10
101.5474038887327
 20
53.207265650588511
 30
0.0
 41
0.7507517063628413
 42
0.7507517063628413
 43
0.7507517063628413
  0
INSERT
  5
2254
  8
0
  2
$34
 10
106.0031152659961
 20
50.707262468400238
 30
0.0
 41
0.7507517063628413
 42
0.7507517063628413
 43
0.7507517063628413
  0
INSERT
  5
2255
  8
0
  2
$30
 10
101.5474038887327
 20
53.32738592360657
 30
0.0
 41
0.7507517063628413
 42
0.7507517063628413
 43
0.7507517063628413
  0
INSERT
  5
2256
  8
0
  2
$30
 10
101.5474038887327
 20
53.297355855352052
 30
0.0
 41
0.7507517063628413
 42
0.7507517063628413
 43
0.7507517063628413
  0
INSERT
  5
2257
  8
0
  2
$30
 10
101.5474038887327
 20
53.267325787097541
 30
0.0
 41
0.7507517063628413
 42
0.7507517063628413
 43
0.7507517063628413
  0
INSERT
  5
2258
  8
0
  2
$30
 10
101.5474038887327
 20
53.237295718843022
 30
0.0
 41
0.7507517063628413
 42
0.7507517063628413
 43
0.7507517063628413
  0
INSERT
  5
2259
  8
0
  2
$30
 10
104.7456061578384
 20
53.207265650588511
 30
0.0
 41
0.7507517063628413
 42
0.7507517063628413
 43
0.7507517063628413
  0
INSERT
  5
225A
  8
0
  2
$30
 10
104.7456061578384
 20
53.237295718843022
 30
0.0
 41
0.7507517063628413
 42
0.7507517063628413
 43
0.7507517063628413
  0
INSERT
  5
225B
  8
0
  2
$30
 10
104.7456061578384
 20
53.267325787097541
 30
0.0
 41
0.7507517063628413
 42
0.7507517063628413
 43
0.7507517063628413
  0
INSERT
  5
225C
  8
0
  2
$30
 10
104.7456061578384
 20
53.297355855352052
 30
0.0
 41
0.7507517063628413
 42
0.7507517063628413
 43
0.7507517063628413
  0
INSERT
  5
225D
  8
0
  2
$30
 10
104.7456061578384
 20
53.32738592360657
 30
0.0
 41
0.7507517063628413
 42
0.7507517063628413
 43
0.7507517063628413
  0
INSERT
  5
225E
  8
0
  2
$30
 10
101.5474038887327
 20
52.096153125171512
 30
0.0
 41
0.7507517063628413
 42
0.7507517063628413
 43
0.7507517063628413
  0
INSERT
  5
225F
  8
0
  2
$30
 10
101.5474038887327
 20
52.126183193426023
 30
0.0
 41
0.7507517063628413
 42
0.7507517063628413
 43
0.7507517063628413
  0
INSERT
  5
2260
  8
0
  2
$30
 10
101.5474038887327
 20
52.066123056916993
 30
0.0
 41
0.7507517063628413
 42
0.7507517063628413
 43
0.7507517063628413
  0
INSERT
  5
2261
  8
0
  2
$30
 10
101.5474038887327
 20
52.036092988662467
 30
0.0
 41
0.7507517063628413
 42
0.7507517063628413
 43
0.7507517063628413
  0
INSERT
  5
2262
  8
0
  2
$30
 10
101.5474038887327
 20
52.156213261680527
 30
0.0
 41
0.7507517063628413
 42
0.7507517063628413
 43
0.7507517063628413
  0
INSERT
  5
2263
  8
0
  2
$30
 10
100.77412963117889
 20
51.653209618417428
 30
0.0
 41
0.7507517063628413
 42
0.7507517063628413
 43
0.7507517063628413
  0
INSERT
  5
2264
  8
0
  2
$30
 10
100.7440995629244
 20
51.653209618417428
 30
0.0
 41
0.7507517063628413
 42
0.7507517063628413
 43
0.7507517063628413
  0
INSERT
  5
2265
  8
0
  2
$30
 10
100.7140694946699
 20
51.653209618417428
 30
0.0
 41
0.7507517063628413
 42
0.7507517063628413
 43
0.7507517063628413
  0
INSERT
  5
2266
  8
0
  2
$30
 10
100.6840394264154
 20
51.653209618417428
 30
0.0
 41
0.7507517063628413
 42
0.7507517063628413
 43
0.7507517063628413
  0
INSERT
  5
2267
  8
0
  2
$30
 10
100.65400935816091
 20
51.653209618417428
 30
0.0
 41
0.7507517063628413
 42
0.7507517063628413
 43
0.7507517063628413
  0
INSERT
  5
2268
  8
0
  2
$34
 10
101.4235298571828
 20
50.707262468400238
 30
0.0
 41
0.7507517063628413
 42
0.7507517063628413
 43
0.7507517063628413
  0
TEXT
  5
2269
  8
0
 62
     7
 10
136.50097368519451
 20
60.927780774217752
 30
0.0
 40
0.0375375853181421
  1

  7
SIMPLEX
  0
TEXT
  5
226A
  8
0
 62
     7
 10
134.08713232439101
 20
61.212031736633918
 30
0.0
 40
0.0563063779772131
  1

  7
ROMAND
 72
     1
 11
134.08713232439101
 21
61.212031736633918
 31
0.0
  0
TEXT
  5
226B
  8
0
 62
     7
 10
120.10362765583319
 20
57.134029030299487
 30
0.0
 40
0.0375375853181421
  1

  7
SIMPLEX
  0
TEXT
  5
226C
  8
0
 62
     7
 10
117.68978629502971
 20
57.418279992715668
 30
0.0
 40
0.0563063779772131
  1

  7
ROMAND
 72
     1
 11
117.68978629502971
 21
57.418279992715668
 31
0.0
  0
TEXT
  5
226D
  8
0
 62
     7
 10
100.64679640145719
 20
44.63570398148547
 30
0.0
 40
0.0375375853181421
  1

  7
SIMPLEX
  0
TEXT
  5
226E
  8
0
 62
     7
 10
98.232955040653835
 20
44.919954943901651
 30
0.0
 40
0.0563063779772131
  1

  7
ROMAND
 72
     1
 11
98.232955040653835
 21
44.919954943901651
 31
0.0
  0
TEXT
  5
226F
  8
0
 62
     7
 10
105.55284924453029
 20
42.705115385414899
 30
0.0
 40
0.0375375853181421
  1

  7
SIMPLEX
  0
TEXT
  5
2270
  8
0
 62
     7
 10
103.1390078837268
 20
42.989366347831073
 30
0.0
 40
0.0563063779772131
  1

  7
ROMAND
 72
     1
 11
103.1390078837268
 21
42.989366347831073
 31
0.0
  0
TEXT
  5
2271
  8
0
 62
     7
 10
89.155503215168963
 20
38.911363641496649
 30
0.0
 40
0.0375375853181421
  1

  7
SIMPLEX
  0
TEXT
  5
2272
  8
0
 62
     7
 10
86.741661854365518
 20
39.195614603912823
 30
0.0
 40
0.0563063779772131
  1

  7
ROMAND
 72
     1
 11
86.741661854365518
 21
39.195614603912823
 31
0.0
  0
TEXT
  5
2273
  8
0
 62
     7
 10
89.258404260767094
 20
43.994361478290301
 30
0.0
 40
0.05
  1

  7
SIMPLEX
  0
TEXT
  5
2274
  8
0
 62
     7
 10
86.043171660767086
 20
44.372983278290299
 30
0.0
 40
0.075
  1

  7
ROMAND
 72
     1
 11
86.043171660767086
 21
44.372983278290299
 31
0.0
  0
INSERT
  5
2275
  8
0
  2
$2
 10
119.02941967333039
 20
60.178452107532557
 30
0.0
  0
INSERT
  5
2276
  8
0
  2
$2
 10
118.32941967333041
 20
60.178452107532557
 30
0.0
  0
INSERT
  5
2277
  8
0
  2
$2
 10
116.9094196733304
 20
60.178452107532557
 30
0.0
  0
INSERT
  5
2278
  8
0
  2
$2
 10
116.20441967333041
 20
60.178452107532557
 30
0.0
  0
INSERT
  5
2279
  8
0
  2
$30
 10
115.4944196733304
 20
60.088452107532547
 30
0.0
  0
INSERT
  5
227A
  8
0
  2
$34
 10
121.4294196733304
 20
56.758452107532548
 30
0.0
  0
INSERT
  5
227B
  8
0
  2
$30
 10
115.4944196733304
 20
60.24845210753255
 30
0.0
  0
INSERT
  5
227C
  8
0
  2
$30
 10
115.4944196733304
 20
60.208452107532551
 30
0.0
  0
INSERT
  5
227D
  8
0
  2
$30
 10
115.4944196733304
 20
60.168452107532559
 30
0.0
  0
INSERT
  5
227E
  8
0
  2
$30
 10
115.4944196733304
 20
60.128452107532553
 30
0.0
  0
INSERT
  5
227F
  8
0
  2
$30
 10
119.7544196733304
 20
60.088452107532547
 30
0.0
  0
INSERT
  5
2280
  8
0
  2
$30
 10
119.7544196733304
 20
60.128452107532553
 30
0.0
  0
INSERT
  5
2281
  8
0
  2
$30
 10
119.7544196733304
 20
60.168452107532559
 30
0.0
  0
INSERT
  5
2282
  8
0
  2
$30
 10
119.7544196733304
 20
60.208452107532551
 30
0.0
  0
INSERT
  5
2283
  8
0
  2
$30
 10
119.7544196733304
 20
60.24845210753255
 30
0.0
  0
INSERT
  5
2284
  8
0
  2
$30
 10
115.4944196733304
 20
58.608452107532557
 30
0.0
  0
INSERT
  5
2285
  8
0
  2
$30
 10
115.4944196733304
 20
58.648452107532549
 30
0.0
  0
INSERT
  5
2286
  8
0
  2
$30
 10
115.4944196733304
 20
58.568452107532551
 30
0.0
  0
INSERT
  5
2287
  8
0
  2
$30
 10
115.4944196733304
 20
58.528452107532559
 30
0.0
  0
INSERT
  5
2288
  8
0
  2
$30
 10
115.4944196733304
 20
58.688452107532562
 30
0.0
  0
INSERT
  5
2289
  8
0
  2
$30
 10
114.4644196733304
 20
58.018452107532553
 30
0.0
  0
INSERT
  5
228A
  8
0
  2
$30
 10
114.42441967333041
 20
58.018452107532553
 30
0.0
  0
INSERT
  5
228B
  8
0
  2
$30
 10
114.3844196733304
 20
58.018452107532553
 30
0.0
  0
INSERT
  5
228C
  8
0
  2
$30
 10
114.34441967333041
 20
58.018452107532553
 30
0.0
  0
INSERT
  5
228D
  8
0
  2
$30
 10
114.3044196733304
 20
58.018452107532553
 30
0.0
  0
INSERT
  5
228E
  8
0
  2
$34
 10
115.32941967333041
 20
56.758452107532548
 30
0.0
  0
TEXT
  5
228F
  8
0
 62
     7
 10
162.0525153795673
 20
70.372165162322304
 30
0.0
 40
0.05
  1

  7
SIMPLEX
  0
TEXT
  5
2290
  8
0
 62
     7
 10
158.8372827795672
 20
70.750786962322309
 30
0.0
 40
0.075
  1

  7
ROMAND
 72
     1
 11
158.8372827795672
 21
70.750786962322309
 31
0.0
  0
TEXT
  5
2291
  8
0
 62
     7
 10
140.2112782696293
 20
65.318894271606922
 30
0.0
 40
0.05
  1

  7
SIMPLEX
  0
TEXT
  5
2292
  8
0
 62
     7
 10
136.9960456696293
 20
65.697516071606913
 30
0.0
 40
0.075
  1

  7
ROMAND
 72
     1
 11
136.9960456696293
 21
65.697516071606913
 31
0.0
  0
TEXT
  5
2293
  8
0
 62
     7
 10
114.29481202723051
 20
48.67114649709368
 30
0.0
 40
0.05
  1

  7
SIMPLEX
  0
TEXT
  5
2294
  8
0
 62
     7
 10
111.0795794272305
 20
49.049768297093678
 30
0.0
 40
0.075
  1

  7
ROMAND
 72
     1
 11
111.0795794272305
 21
49.049768297093678
 31
0.0
  0
TEXT
  5
2295
  8
0
 62
     7
 10
120.8296660961494
 20
46.099605760378367
 30
0.0
 40
0.05
  1

  7
SIMPLEX
  0
TEXT
  5
2296
  8
0
 62
     7
 10
117.6144334961494
 20
46.478227560378372
 30
0.0
 40
0.075
  1

  7
ROMAND
 72
     1
 11
117.6144334961494
 21
46.478227560378372
 31
0.0
  0
TEXT
  5
2297
  8
0
 62
     7
 10
98.988428986211474
 20
41.046334869662978
 30
0.0
 40
0.05
  1

  7
SIMPLEX
  0
TEXT
  5
2298
  8
0
 62
     7
 10
95.773196386211467
 20
41.424956669662969
 30
0.0
 40
0.075
  1

  7
ROMAND
 72
     1
 11
95.773196386211467
 21
41.424956669662969
 31
0.0
  0
INSERT
  5
2299
  8
0
  2
$2
 10
87.451139846193328
 20
47.823819967885498
 30
0.0
  0
INSERT
  5
229A
  8
0
  2
$2
 10
86.751139846193325
 20
47.823819967885498
 30
0.0
  0
INSERT
  5
229B
  8
0
  2
$2
 10
85.331139846193324
 20
47.823819967885498
 30
0.0
  0
INSERT
  5
229C
  8
0
  2
$2
 10
84.626139846193325
 20
47.823819967885498
 30
0.0
  0
INSERT
  5
229D
  8
0
  2
$30
 10
83.916139846193332
 20
47.733819967885502
 30
0.0
  0
INSERT
  5
229E
  8
0
  2
$34
 10
89.851139846193306
 20
44.403819967885489
 30
0.0
  0
INSERT
  5
229F
  8
0
  2
$30
 10
83.916139846193332
 20
47.893819967885491
 30
0.0
  0
INSERT
  5
22A0
  8
0
  2
$30
 10
83.916139846193332
 20
47.853819967885499
 30
0.0
  0
INSERT
  5
22A1
  8
0
  2
$30
 10
83.916139846193332
 20
47.813819967885493
 30
0.0
  0
INSERT
  5
22A2
  8
0
  2
$30
 10
83.916139846193332
 20
47.773819967885487
 30
0.0
  0
INSERT
  5
22A3
  8
0
  2
$30
 10
88.176139846193337
 20
47.733819967885502
 30
0.0
  0
INSERT
  5
22A4
  8
0
  2
$30
 10
88.176139846193337
 20
47.773819967885487
 30
0.0
  0
INSERT
  5
22A5
  8
0
  2
$30
 10
88.176139846193337
 20
47.813819967885493
 30
0.0
  0
INSERT
  5
22A6
  8
0
  2
$30
 10
88.176139846193337
 20
47.853819967885499
 30
0.0
  0
INSERT
  5
22A7
  8
0
  2
$30
 10
88.176139846193337
 20
47.893819967885491
 30
0.0
  0
INSERT
  5
22A8
  8
0
  2
$30
 10
83.916139846193332
 20
46.253819967885498
 30
0.0
  0
INSERT
  5
22A9
  8
0
  2
$30
 10
83.916139846193332
 20
46.29381996788549
 30
0.0
  0
INSERT
  5
22AA
  8
0
  2
$30
 10
83.916139846193332
 20
46.213819967885492
 30
0.0
  0
INSERT
  5
22AB
  8
0
  2
$30
 10
83.916139846193332
 20
46.173819967885493
 30
0.0
  0
INSERT
  5
22AC
  8
0
  2
$30
 10
83.916139846193332
 20
46.333819967885489
 30
0.0
  0
INSERT
  5
22AD
  8
0
  2
$30
 10
82.886139846193331
 20
45.663819967885487
 30
0.0
  0
INSERT
  5
22AE
  8
0
  2
$30
 10
82.846139846193324
 20
45.663819967885487
 30
0.0
  0
INSERT
  5
22AF
  8
0
  2
$30
 10
82.806139846193346
 20
45.663819967885487
 30
0.0
  0
INSERT
  5
22B0
  8
0
  2
$30
 10
82.766139846193326
 20
45.663819967885487
 30
0.0
  0
INSERT
  5
22B1
  8
0
  2
$30
 10
82.726139846193306
 20
45.663819967885487
 30
0.0
  0
INSERT
  5
22B2
  8
0
  2
$34
 10
83.751139846193325
 20
44.403819967885489
 30
0.0
  0
TEXT
  5
22B3
  8
0
 62
     7
 10
130.4742355524302
 20
58.017533022675238
 30
0.0
 40
0.05
  1

  7
SIMPLEX
  0
TEXT
  5
22B4
  8
0
 62
     7
 10
127.25900295243019
 20
58.396154822675243
 30
0.0
 40
0.075
  1

  7
ROMAND
 72
     1
 11
127.25900295243019
 21
58.396154822675243
 31
0.0
  0
TEXT
  5
22B5
  8
0
 62
     7
 10
108.63299844249219
 20
52.964262131959849
 30
0.0
 40
0.05
  1

  7
SIMPLEX
  0
TEXT
  5
22B6
  8
0
 62
     7
 10
105.4177658424922
 20
53.342883931959861
 30
0.0
 40
0.075
  1

  7
ROMAND
 72
     1
 11
105.4177658424922
 21
53.342883931959861
 31
0.0
  0
TEXT
  5
22B7
  8
0
 62
     7
 10
82.716532200093411
 20
36.316514357446621
 30
0.0
 40
0.05
  1

  7
SIMPLEX
  0
TEXT
  5
22B8
  8
0
 62
     7
 10
79.501299600093404
 20
36.695136157446633
 30
0.0
 40
0.075
  1

  7
ROMAND
 72
     1
 11
79.501299600093404
 21
36.695136157446633
 31
0.0
  0
INSERT
  5
22B9
  8
0
  2
$2
 10
85.074691981531714
 20
44.542771877933703
 30
0.0
  0
INSERT
  5
22BA
  8
0
  2
$2
 10
84.374691981531726
 20
44.542771877933703
 30
0.0
  0
INSERT
  5
22BB
  8
0
  2
$2
 10
82.954691981531695
 20
44.542771877933703
 30
0.0
  0
INSERT
  5
22BC
  8
0
  2
$2
 10
82.249691981531711
 20
44.542771877933703
 30
0.0
  0
INSERT
  5
22BD
  8
0
  2
$30
 10
81.539691981531703
 20
44.452771877933699
 30
0.0
  0
INSERT
  5
22BE
  8
0
  2
$34
 10
87.474691981531706
 20
41.122771877933687
 30
0.0
  0
INSERT
  5
22BF
  8
0
  2
$30
 10
81.539691981531703
 20
44.612771877933703
 30
0.0
  0
INSERT
  5
22C0
  8
0
  2
$30
 10
81.539691981531703
 20
44.572771877933697
 30
0.0
  0
INSERT
  5
22C1
  8
0
  2
$30
 10
81.539691981531703
 20
44.532771877933698
 30
0.0
  0
INSERT
  5
22C2
  8
0
  2
$30
 10
81.539691981531703
 20
44.492771877933691
 30
0.0
  0
INSERT
  5
22C3
  8
0
  2
$30
 10
85.799691981531694
 20
44.452771877933699
 30
0.0
  0
INSERT
  5
22C4
  8
0
  2
$30
 10
85.799691981531694
 20
44.492771877933691
 30
0.0
  0
INSERT
  5
22C5
  8
0
  2
$30
 10
85.799691981531694
 20
44.532771877933698
 30
0.0
  0
INSERT
  5
22C6
  8
0
  2
$30
 10
85.799691981531694
 20
44.572771877933697
 30
0.0
  0
INSERT
  5
22C7
  8
0
  2
$30
 10
85.799691981531694
 20
44.612771877933703
 30
0.0
  0
INSERT
  5
22C8
  8
0
  2
$30
 10
81.539691981531703
 20
42.972771877933702
 30
0.0
  0
INSERT
  5
22C9
  8
0
  2
$30
 10
81.539691981531703
 20
43.012771877933687
 30
0.0
  0
INSERT
  5
22CA
  8
0
  2
$30
 10
81.539691981531703
 20
42.932771877933703
 30
0.0
  0
INSERT
  5
22CB
  8
0
  2
$30
 10
81.539691981531703
 20
42.89277187793369
 30
0.0
  0
INSERT
  5
22CC
  8
0
  2
$30
 10
81.539691981531703
 20
43.052771877933701
 30
0.0
  0
INSERT
  5
22CD
  8
0
  2
$30
 10
80.509691981531716
 20
42.382771877933699
 30
0.0
  0
INSERT
  5
22CE
  8
0
  2
$30
 10
80.46969198153171
 20
42.382771877933699
 30
0.0
  0
INSERT
  5
22CF
  8
0
  2
$30
 10
80.429691981531704
 20
42.382771877933699
 30
0.0
  0
INSERT
  5
22D0
  8
0
  2
$30
 10
80.389691981531712
 20
42.382771877933699
 30
0.0
  0
INSERT
  5
22D1
  8
0
  2
$30
 10
80.349691981531706
 20
42.382771877933699
 30
0.0
  0
INSERT
  5
22D2
  8
0
  2
$34
 10
81.374691981531711
 20
41.122771877933687
 30
0.0
  0
TEXT
  5
22D3
  8
0
 62
     7
 10
128.0977876877686
 20
54.73648493272345
 30
0.0
 40
0.05
  1

  7
SIMPLEX
  0
TEXT
  5
22D4
  8
0
 62
     7
 10
124.88255508776849
 20
55.11510673272344
 30
0.0
 40
0.075
  1

  7
ROMAND
 72
     1
 11
124.88255508776849
 21
55.11510673272344
 31
0.0
  0
TEXT
  5
22D5
  8
0
 62
     7
 10
106.25655057783059
 20
49.683214042008061
 30
0.0
 40
0.05
  1

  7
SIMPLEX
  0
TEXT
  5
22D6
  8
0
 62
     7
 10
103.0413179778306
 20
50.061835842008058
 30
0.0
 40
0.075
  1

  7
ROMAND
 72
     1
 11
103.0413179778306
 21
50.061835842008058
 31
0.0
  0
TEXT
  5
22D7
  8
0
 62
     7
 10
80.340084335431783
 20
33.035466267494833
 30
0.0
 40
0.05
  1

  7
SIMPLEX
  0
TEXT
  5
22D8
  8
0
 62
     7
 10
77.124851735431776
 20
33.414088067494831
 30
0.0
 40
0.075
  1

  7
ROMAND
 72
     1
 11
77.124851735431776
 21
33.414088067494831
 31
0.0
  0
TEXT
  5
22D9
  8
0
 62
     7
 10
86.874938404350672
 20
30.463925530779509
 30
0.0
 40
0.05
  1

  7
SIMPLEX
  0
TEXT
  5
22DA
  8
0
 62
     7
 10
83.659705804350665
 20
30.842547330779521
 30
0.0
 40
0.075
  1

  7
ROMAND
 72
     1
 11
83.659705804350665
 21
30.842547330779521
 31
0.0
  0
TEXT
  5
22DB
  8
0
 62
     7
 10
65.033701294412737
 20
25.41065464006412
 30
0.0
 40
0.05
  1

  7
SIMPLEX
  0
TEXT
  5
22DC
  8
0
 62
     7
 10
61.818468694412744
 20
25.789276440064128
 30
0.0
 40
0.075
  1

  7
ROMAND
 72
     1
 11
61.818468694412744
 21
25.789276440064128
 31
0.0
  0
INSERT
  5
22DD
  8
0
  2
$2
 10
66.478840353524987
 20
31.74222256763748
 30
0.0
 41
0.7507517063628413
 42
0.7507517063628413
 43
0.7507517063628413
  0
INSERT
  5
22DE
  8
0
  2
$2
 10
65.953314159070999
 20
31.74222256763748
 30
0.0
 41
0.7507517063628413
 42
0.7507517063628413
 43
0.7507517063628413
  0
INSERT
  5
22DF
  8
0
  2
$2
 10
64.887246736035763
 20
31.74222256763748
 30
0.0
 41
0.7507517063628413
 42
0.7507517063628413
 43
0.7507517063628413
  0
INSERT
  5
22E0
  8
0
  2
$2
 10
64.35796678304996
 20
31.74222256763748
 30
0.0
 41
0.7507517063628413
 42
0.7507517063628413
 43
0.7507517063628413
  0
INSERT
  5
22E1
  8
0
  2
$30
 10
63.824933071532342
 20
31.674654914064821
 30
0.0
 41
0.7507517063628413
 42
0.7507517063628413
 43
0.7507517063628413
  0
INSERT
  5
22E2
  8
0
  2
$34
 10
68.280644448795812
 20
29.174651731876558
 30
0.0
 41
0.7507517063628413
 42
0.7507517063628413
 43
0.7507517063628413
  0
INSERT
  5
22E3
  8
0
  2
$30
 10
63.824933071532342
 20
31.79477518708287
 30
0.0
 41
0.7507517063628413
 42
0.7507517063628413
 43
0.7507517063628413
  0
INSERT
  5
22E4
  8
0
  2
$30
 10
63.824933071532342
 20
31.764745118828358
 30
0.0
 41
0.7507517063628413
 42
0.7507517063628413
 43
0.7507517063628413
  0
INSERT
  5
22E5
  8
0
  2
$30
 10
63.824933071532342
 20
31.73471505057385
 30
0.0
 41
0.7507517063628413
 42
0.7507517063628413
 43
0.7507517063628413
  0
INSERT
  5
22E6
  8
0
  2
$30
 10
63.824933071532342
 20
31.704684982319328
 30
0.0
 41
0.7507517063628413
 42
0.7507517063628413
 43
0.7507517063628413
  0
INSERT
  5
22E7
  8
0
  2
$30
 10
67.023135340638035
 20
31.674654914064821
 30
0.0
 41
0.7507517063628413
 42
0.7507517063628413
 43
0.7507517063628413
  0
INSERT
  5
22E8
  8
0
  2
$30
 10
67.023135340638035
 20
31.704684982319328
 30
0.0
 41
0.7507517063628413
 42
0.7507517063628413
 43
0.7507517063628413
  0
INSERT
  5
22E9
  8
0
  2
$30
 10
67.023135340638035
 20
31.73471505057385
 30
0.0
 41
0.7507517063628413
 42
0.7507517063628413
 43
0.7507517063628413
  0
INSERT
  5
22EA
  8
0
  2
$30
 10
67.023135340638035
 20
31.764745118828358
 30
0.0
 41
0.7507517063628413
 42
0.7507517063628413
 43
0.7507517063628413
  0
INSERT
  5
22EB
  8
0
  2
$30
 10
67.023135340638035
 20
31.79477518708287
 30
0.0
 41
0.7507517063628413
 42
0.7507517063628413
 43
0.7507517063628413
  0
INSERT
  5
22EC
  8
0
  2
$30
 10
63.824933071532342
 20
30.563542388647811
 30
0.0
 41
0.7507517063628413
 42
0.7507517063628413
 43
0.7507517063628413
  0
INSERT
  5
22ED
  8
0
  2
$30
 10
63.824933071532342
 20
30.593572456902329
 30
0.0
 41
0.7507517063628413
 42
0.7507517063628413
 43
0.7507517063628413
  0
INSERT
  5
22EE
  8
0
  2
$30
 10
63.824933071532342
 20
30.533512320393299
 30
0.0
 41
0.7507517063628413
 42
0.7507517063628413
 43
0.7507517063628413
  0
INSERT
  5
22EF
  8
0
  2
$30
 10
63.824933071532342
 20
30.503482252138792
 30
0.0
 41
0.7507517063628413
 42
0.7507517063628413
 43
0.7507517063628413
  0
INSERT
  5
22F0
  8
0
  2
$30
 10
63.824933071532342
 20
30.623602525156841
 30
0.0
 41
0.7507517063628413
 42
0.7507517063628413
 43
0.7507517063628413
  0
INSERT
  5
22F1
  8
0
  2
$30
 10
63.051658813978612
 20
30.120598881893731
 30
0.0
 41
0.7507517063628413
 42
0.7507517063628413
 43
0.7507517063628413
  0
INSERT
  5
22F2
  8
0
  2
$30
 10
63.021628745724101
 20
30.120598881893731
 30
0.0
 41
0.7507517063628413
 42
0.7507517063628413
 43
0.7507517063628413
  0
INSERT
  5
22F3
  8
0
  2
$30
 10
62.99159867746959
 20
30.120598881893731
 30
0.0
 41
0.7507517063628413
 42
0.7507517063628413
 43
0.7507517063628413
  0
INSERT
  5
22F4
  8
0
  2
$30
 10
62.961568609215078
 20
30.120598881893731
 30
0.0
 41
0.7507517063628413
 42
0.7507517063628413
 43
0.7507517063628413
  0
INSERT
  5
22F5
  8
0
  2
$30
 10
62.93153854096056
 20
30.120598881893731
 30
0.0
 41
0.7507517063628413
 42
0.7507517063628413
 43
0.7507517063628413
  0
INSERT
  5
22F6
  8
0
  2
$34
 10
63.701059039982482
 20
29.174651731876558
 30
0.0
 41
0.7507517063628413
 42
0.7507517063628413
 43
0.7507517063628413
  0
TEXT
  5
22F7
  8
0
 62
     7
 10
98.778502867994163
 20
39.395170037694058
 30
0.0
 40
0.0375375853181421
  1

  7
SIMPLEX
  0
TEXT
  5
22F8
  8
0
 62
     7
 10
96.364661507190732
 20
39.679421000110217
 30
0.0
 40
0.0563063779772131
  1

  7
ROMAND
 72
     1
 11
96.364661507190732
 21
39.679421000110217
 31
0.0
  0
TEXT
  5
22F9
  8
0
 62
     7
 10
82.381156838632819
 20
35.601418293775801
 30
0.0
 40
0.0375375853181421
  1

  7
SIMPLEX
  0
TEXT
  5
22FA
  8
0
 62
     7
 10
79.967315477829388
 20
35.885669256191967
 30
0.0
 40
0.0563063779772131
  1

  7
ROMAND
 72
     1
 11
79.967315477829388
 21
35.885669256191967
 31
0.0
  0
TEXT
  5
22FB
  8
0
 62
     7
 10
62.92432558425692
 20
23.103093244961791
 30
0.0
 40
0.0375375853181421
  1

  7
SIMPLEX
  0
TEXT
  5
22FC
  8
0
 62
     7
 10
60.510484223453481
 20
23.387344207377961
 30
0.0
 40
0.0563063779772131
  1

  7
ROMAND
 72
     1
 11
60.510484223453481
 21
23.387344207377961
 31
0.0
  0
TEXT
  5
22FD
  8
0
 62
     7
 10
67.830378427329933
 20
21.172504648891209
 30
0.0
 40
0.0375375853181421
  1

  7
SIMPLEX
  0
TEXT
  5
22FE
  8
0
 62
     7
 10
65.416537066526502
 20
21.456755611307379
 30
0.0
 40
0.0563063779772131
  1

  7
ROMAND
 72
     1
 11
65.416537066526502
 21
21.456755611307379
 31
0.0
  0
TEXT
  5
22FF
  8
0
 62
     7
 10
51.433032397968603
 20
17.378752904972949
 30
0.0
 40
0.0375375853181421
  1

  7
SIMPLEX
  0
TEXT
  5
2300
  8
0
 62
     7
 10
49.019191037165172
 20
17.663003867389119
 30
0.0
 40
0.0563063779772131
  1

  7
ROMAND
 72
     1
 11
49.019191037165172
 21
17.663003867389119
 31
0.0
  0
TEXT
  5
2301
  8
0
 62
     7
 10
51.535933443566726
 20
22.461750741766611
 30
0.0
 40
0.05
  1

  7
SIMPLEX
  0
TEXT
  5
2302
  8
0
 62
     7
 10
48.320700843566719
 20
22.840372541766609
 30
0.0
 40
0.075
  1

  7
ROMAND
 72
     1
 11
48.320700843566719
 21
22.840372541766609
 31
0.0
  0
INSERT
  5
2303
  8
0
  2
$2
 10
65.385295804961302
 20
37.051415065657437
 30
0.0
  0
INSERT
  5
2304
  8
0
  2
$2
 10
64.685295804961299
 20
37.051415065657437
 30
0.0
  0
INSERT
  5
2305
  8
0
  2
$2
 10
63.265295804961298
 20
37.051415065657437
 30
0.0
  0
INSERT
  5
2306
  8
0
  2
$2
 10
62.560295804961299
 20
37.051415065657437
 30
0.0
  0
INSERT
  5
2307
  8
0
  2
$30
 10
61.850295804961313
 20
36.961415065657427
 30
0.0
  0
INSERT
  5
2308
  8
0
  2
$34
 10
67.785295804961294
 20
33.631415065657443
 30
0.0
  0
INSERT
  5
2309
  8
0
  2
$30
 10
61.850295804961313
 20
37.12141506565743
 30
0.0
  0
INSERT
  5
230A
  8
0
  2
$30
 10
61.850295804961313
 20
37.081415065657438
 30
0.0
  0
INSERT
  5
230B
  8
0
  2
$30
 10
61.850295804961313
 20
37.041415065657432
 30
0.0
  0
INSERT
  5
230C
  8
0
  2
$30
 10
61.850295804961313
 20
37.001415065657433
 30
0.0
  0
INSERT
  5
230D
  8
0
  2
$30
 10
66.110295804961311
 20
36.961415065657427
 30
0.0
  0
INSERT
  5
230E
  8
0
  2
$30
 10
66.110295804961311
 20
37.001415065657433
 30
0.0
  0
INSERT
  5
230F
  8
0
  2
$30
 10
66.110295804961311
 20
37.041415065657432
 30
0.0
  0
INSERT
  5
2310
  8
0
  2
$30
 10
66.110295804961311
 20
37.081415065657438
 30
0.0
  0
INSERT
  5
2311
  8
0
  2
$30
 10
66.110295804961311
 20
37.12141506565743
 30
0.0
  0
INSERT
  5
2312
  8
0
  2
$30
 10
61.850295804961313
 20
35.481415065657437
 30
0.0
  0
INSERT
  5
2313
  8
0
  2
$30
 10
61.850295804961313
 20
35.521415065657443
 30
0.0
  0
INSERT
  5
2314
  8
0
  2
$30
 10
61.850295804961313
 20
35.441415065657438
 30
0.0
  0
INSERT
  5
2315
  8
0
  2
$30
 10
61.850295804961313
 20
35.401415065657432
 30
0.0
  0
INSERT
  5
2316
  8
0
  2
$30
 10
61.850295804961313
 20
35.561415065657442
 30
0.0
  0
INSERT
  5
2317
  8
0
  2
$30
 10
60.820295804961297
 20
34.891415065657441
 30
0.0
  0
INSERT
  5
2318
  8
0
  2
$30
 10
60.780295804961298
 20
34.891415065657441
 30
0.0
  0
INSERT
  5
2319
  8
0
  2
$30
 10
60.740295804961299
 20
34.891415065657441
 30
0.0
  0
INSERT
  5
231A
  8
0
  2
$30
 10
60.7002958049613
 20
34.891415065657441
 30
0.0
  0
INSERT
  5
231B
  8
0
  2
$30
 10
60.660295804961301
 20
34.891415065657441
 30
0.0
  0
INSERT
  5
231C
  8
0
  2
$34
 10
61.685295804961299
 20
33.631415065657443
 30
0.0
  0
TEXT
  5
231D
  8
0
 62
     7
 10
108.4083915111981
 20
47.245128120447177
 30
0.0
 40
0.05
  1

  7
SIMPLEX
  0
TEXT
  5
231E
  8
0
 62
     7
 10
105.1931589111981
 20
47.623749920447182
 30
0.0
 40
0.075
  1

  7
ROMAND
 72
     1
 11
105.1931589111981
 21
47.623749920447182
 31
0.0
  0
TEXT
  5
231F
  8
0
 62
     7
 10
86.567154401260211
 20
42.191857229731788
 30
0.0
 40
0.05
  1

  7
SIMPLEX
  0
TEXT
  5
2320
  8
0
 62
     7
 10
83.351921801260204
 20
42.570479029731793
 30
0.0
 40
0.075
  1

  7
ROMAND
 72
     1
 11
83.351921801260204
 21
42.570479029731793
 31
0.0
  0
TEXT
  5
2321
  8
0
 62
     7
 10
60.650688158861392
 20
25.54410945521856
 30
0.0
 40
0.05
  1

  7
SIMPLEX
  0
TEXT
  5
2322
  8
0
 62
     7
 10
57.435455558861378
 20
25.922731255218562
 30
0.0
 40
0.075
  1

  7
ROMAND
 72
     1
 11
57.435455558861378
 21
25.922731255218562
 31
0.0
  0
TEXT
  5
2323
  8
0
 62
     7
 10
67.185542227780275
 20
22.972568718503251
 30
0.0
 40
0.05
  1

  7
SIMPLEX
  0
TEXT
  5
2324
  8
0
 62
     7
 10
63.970309627780267
 20
23.351190518503248
 30
0.0
 40
0.075
  1

  7
ROMAND
 72
     1
 11
63.970309627780267
 21
23.351190518503248
 31
0.0
  0
TEXT
  5
2325
  8
0
 62
     7
 10
45.344305117842339
 20
17.919297827787862
 30
0.0
 40
0.05
  1

  7
SIMPLEX
  0
TEXT
  5
2326
  8
0
 62
     7
 10
42.129072517842317
 20
18.297919627787859
 30
0.0
 40
0.075
  1

  7
ROMAND
 72
     1
 11
42.129072517842317
 21
18.297919627787859
 31
0.0
  0
INSERT
  5
2327
  8
0
  2
$2
 10
74.584053104497855
 20
29.065656442337769
 30
0.0
 41
1.1399459025597869
 42
1.1399459025597869
 43
1.1399459025597869
  0
INSERT
  5
2328
  8
0
  2
$2
 10
73.786090972706006
 20
29.065656442337769
 30
0.0
 41
1.1399459025597869
 42
1.1399459025597869
 43
1.1399459025597869
  0
INSERT
  5
2329
  8
0
  2
$2
 10
72.167367791071115
 20
29.065656442337769
 30
0.0
 41
1.1399459025597869
 42
1.1399459025597869
 43
1.1399459025597869
  0
INSERT
  5
232A
  8
0
  2
$2
 10
71.363705929766454
 20
29.065656442337769
 30
0.0
 41
1.1399459025597869
 42
1.1399459025597869
 43
1.1399459025597869
  0
INSERT
  5
232B
  8
0
  2
$30
 10
70.554344338949008
 20
28.963061311107388
 30
0.0
 41
1.1399459025597869
 42
1.1399459025597869
 43
1.1399459025597869
  0
INSERT
  5
232C
  8
0
  2
$34
 10
77.319923270641326
 20
25.167041455583298
 30
0.0
 41
1.1399459025597869
 42
1.1399459025597869
 43
1.1399459025597869
  0
INSERT
  5
232D
  8
0
  2
$30
 10
70.554344338949008
 20
29.145452655516959
 30
0.0
 41
1.1399459025597869
 42
1.1399459025597869
 43
1.1399459025597869
  0
INSERT
  5
232E
  8
0
  2
$30
 10
70.554344338949008
 20
29.09985481941456
 30
0.0
 41
1.1399459025597869
 42
1.1399459025597869
 43
1.1399459025597869
  0
INSERT
  5
232F
  8
0
  2
$30
 10
70.554344338949008
 20
29.054256983312172
 30
0.0
 41
1.1399459025597869
 42
1.1399459025597869
 43
1.1399459025597869
  0
INSERT
  5
2330
  8
0
  2
$30
 10
70.554344338949008
 20
29.00865914720978
 30
0.0
 41
1.1399459025597869
 42
1.1399459025597869
 43
1.1399459025597869
  0
INSERT
  5
2331
  8
0
  2
$30
 10
75.41051388385371
 20
28.963061311107388
 30
0.0
 41
1.1399459025597869
 42
1.1399459025597869
 43
1.1399459025597869
  0
INSERT
  5
2332
  8
0
  2
$30
 10
75.41051388385371
 20
29.00865914720978
 30
0.0
 41
1.1399459025597869
 42
1.1399459025597869
 43
1.1399459025597869
  0
INSERT
  5
2333
  8
0
  2
$30
 10
75.41051388385371
 20
29.054256983312172
 30
0.0
 41
1.1399459025597869
 42
1.1399459025597869
 43
1.1399459025597869
  0
INSERT
  5
2334
  8
0
  2
$30
 10
75.41051388385371
 20
29.09985481941456
 30
0.0
 41
1.1399459025597869
 42
1.1399459025597869
 43
1.1399459025597869
  0
INSERT
  5
2335
  8
0
  2
$30
 10
75.41051388385371
 20
29.145452655516959
 30
0.0
 41
1.1399459025597869
 42
1.1399459025597869
 43
1.1399459025597869
  0
INSERT
  5
2336
  8
0
  2
$30
 10
70.554344338949008
 20
27.275941375318911
 30
0.0
 41
1.1399459025597869
 42
1.1399459025597869
 43
1.1399459025597869
  0
INSERT
  5
2337
  8
0
  2
$30
 10
70.554344338949008
 20
27.3215392114213
 30
0.0
 41
1.1399459025597869
 42
1.1399459025597869
 43
1.1399459025597869
  0
INSERT
  5
2338
  8
0
  2
$30
 10
70.554344338949008
 20
27.230343539216509
 30
0.0
 41
1.1399459025597869
 42
1.1399459025597869
 43
1.1399459025597869
  0
INSERT
  5
2339
  8
0
  2
$30
 10
70.554344338949008
 20
27.184745703114121
 30
0.0
 41
1.1399459025597869
 42
1.1399459025597869
 43
1.1399459025597869
  0
INSERT
  5
233A
  8
0
  2
$30
 10
70.554344338949008
 20
27.367137047523691
 30
0.0
 41
1.1399459025597869
 42
1.1399459025597869
 43
1.1399459025597869
  0
INSERT
  5
233B
  8
0
  2
$30
 10
69.380200059312415
 20
26.60337329280863
 30
0.0
 41
1.1399459025597869
 42
1.1399459025597869
 43
1.1399459025597869
  0
INSERT
  5
233C
  8
0
  2
$30
 10
69.334602223210041
 20
26.60337329280863
 30
0.0
 41
1.1399459025597869
 42
1.1399459025597869
 43
1.1399459025597869
  0
INSERT
  5
233D
  8
0
  2
$30
 10
69.289004387107639
 20
26.60337329280863
 30
0.0
 41
1.1399459025597869
 42
1.1399459025597869
 43
1.1399459025597869
  0
INSERT
  5
233E
  8
0
  2
$30
 10
69.243406551005251
 20
26.60337329280863
 30
0.0
 41
1.1399459025597869
 42
1.1399459025597869
 43
1.1399459025597869
  0
INSERT
  5
233F
  8
0
  2
$30
 10
69.197808714902862
 20
26.60337329280863
 30
0.0
 41
1.1399459025597869
 42
1.1399459025597869
 43
1.1399459025597869
  0
INSERT
  5
2340
  8
0
  2
$34
 10
70.366253265026643
 20
25.167041455583298
 30
0.0
 41
1.1399459025597869
 42
1.1399459025597869
 43
1.1399459025597869
  0
TEXT
  5
2341
  8
0
 62
     7
 10
123.62805477026021
 20
40.685937871015568
 30
0.0
 40
0.0569972951279894
  1

  7
SIMPLEX
  0
TEXT
  5
2342
  8
0
 62
     7
 10
119.9628635421135
 20
41.11754624054538
 30
0.0
 40
0.0854959426919841
  1

  7
ROMAND
 72
     1
 11
119.9628635421135
 21
41.11754624054538
 31
0.0
  0
TEXT
  5
2343
  8
0
 62
     7
 10
98.73022601994964
 20
34.925482424619908
 30
0.0
 40
0.0569972951279894
  1

  7
SIMPLEX
  0
TEXT
  5
2344
  8
0
 62
     7
 10
95.065034791802987
 20
35.35709079414972
 30
0.0
 40
0.0854959426919841
  1

  7
ROMAND
 72
     1
 11
95.065034791802987
 21
35.35709079414972
 31
0.0
  0
TEXT
  5
2345
  8
0
 62
     7
 10
69.186856518098011
 20
15.947950562214711
 30
0.0
 40
0.0569972951279894
  1

  7
SIMPLEX
  0
TEXT
  5
2346
  8
0
 62
     7
 10
65.521665289951358
 20
16.379558931744519
 30
0.0
 40
0.0854959426919841
  1

  7
ROMAND
 72
     1
 11
65.521665289951358
 21
16.379558931744519
 31
0.0
  0
TEXT
  5
2347
  8
0
 62
     7
 10
76.636236637788244
 20
13.01653323613052
 30
0.0
 40
0.0569972951279894
  1

  7
SIMPLEX
  0
TEXT
  5
2348
  8
0
 62
     7
 10
72.971045409641619
 20
13.44814160566033
 30
0.0
 40
0.0854959426919841
  1

  7
ROMAND
 72
     1
 11
72.971045409641619
 21
13.44814160566033
 31
0.0
  0
TEXT
  5
2349
  8
0
 62
     7
 10
51.73840788747772
 20
7.2560777897348583
 30
0.0
 40
0.0569972951279894
  1

  7
SIMPLEX
  0
TEXT
  5
234A
  8
0
 62
     7
 10
48.073216659331059
 20
7.6876861592646701
 30
0.0
 40
0.0854959426919841
  1

  7
ROMAND
 72
     1
 11
48.073216659331059
 21
7.6876861592646701
 31
0.0
  0
TEXT
  5
234B
  8
0
 62
     7
 10
40.222411823298863
 20
14.6748183254746
 30
0.0
 40
0.05
  1

  7
SIMPLEX
  0
TEXT
  5
234C
  8
0
 62
     7
 10
37.007179223298863
 20
15.0534401254746
 30
0.0
 40
0.075
  1

  7
TXT
 72
     1
 11
37.007179223298863
 21
15.0534401254746
 31
0.0
  0
INSERT
  5
2356
  8
TITLE
  2
$2
 10
64.646712317183983
 20
34.817087291040089
 30
0.0
  0
INSERT
  5
2357
  8
TITLE
  2
$34
 10
69.693817898199995
 20
37.17868000651729
 30
0.0
  0
INSERT
  5
2358
  8
0
  2
$2
 10
68.462566014325773
 20
36.665877018680241
 30
0.0
  0
INSERT
  5
2359
  8
0
  2
$2
 10
54.104948123155673
 20
31.46774909542804
 30
0.0
  0
INSERT
  5
235A
  8
0
  2
$2
 10
89.109374075433195
 20
52.446481588982792
 30
0.0
  0
INSERT
  5
235B
  8
0
  2
$2
 10
88.409374075433206
 20
52.446481588982792
 30
0.0
  0
INSERT
  5
235C
  8
0
  2
$2
 10
86.989374075433204
 20
52.446481588982792
 30
0.0
  0
INSERT
  5
235D
  8
0
  2
$2
 10
86.284374075433192
 20
52.446481588982792
 30
0.0
  0
INSERT
  5
235E
  8
0
  2
$30
 10
85.574374075433184
 20
52.356481588982781
 30
0.0
  0
INSERT
  5
235F
  8
0
  2
$34
 10
91.509374075433186
 20
49.02648158898279
 30
0.0
  0
INSERT
  5
2360
  8
0
  2
$30
 10
85.574374075433184
 20
52.516481588982778
 30
0.0
  0
INSERT
  5
2361
  8
0
  2
$30
 10
85.574374075433184
 20
52.476481588982793
 30
0.0
  0
INSERT
  5
2362
  8
0
  2
$30
 10
85.574374075433184
 20
52.43648158898278
 30
0.0
  0
INSERT
  5
2363
  8
0
  2
$30
 10
85.574374075433184
 20
52.396481588982788
 30
0.0
  0
INSERT
  5
2364
  8
0
  2
$30
 10
89.834374075433203
 20
52.356481588982781
 30
0.0
  0
INSERT
  5
2365
  8
0
  2
$30
 10
89.834374075433203
 20
52.396481588982788
 30
0.0
  0
INSERT
  5
2366
  8
0
  2
$30
 10
89.834374075433203
 20
52.43648158898278
 30
0.0
  0
INSERT
  5
2367
  8
0
  2
$30
 10
89.834374075433203
 20
52.476481588982793
 30
0.0
  0
INSERT
  5
2368
  8
0
  2
$30
 10
89.834374075433203
 20
52.516481588982778
 30
0.0
  0
INSERT
  5
2369
  8
0
  2
$30
 10
85.574374075433184
 20
50.876481588982791
 30
0.0
  0
INSERT
  5
236A
  8
0
  2
$30
 10
85.574374075433184
 20
50.916481588982791
 30
0.0
  0
INSERT
  5
236B
  8
0
  2
$30
 10
85.574374075433184
 20
50.836481588982792
 30
0.0
  0
INSERT
  5
236C
  8
0
  2
$30
 10
85.574374075433184
 20
50.796481588982793
 30
0.0
  0
INSERT
  5
236D
  8
0
  2
$30
 10
85.574374075433184
 20
50.95648158898279
 30
0.0
  0
INSERT
  5
236E
  8
0
  2
$30
 10
84.544374075433197
 20
50.286481588982781
 30
0.0
  0
INSERT
  5
236F
  8
0
  2
$30
 10
84.504374075433191
 20
50.286481588982781
 30
0.0
  0
INSERT
  5
2370
  8
0
  2
$30
 10
84.464374075433184
 20
50.286481588982781
 30
0.0
  0
INSERT
  5
2371
  8
0
  2
$30
 10
84.424374075433207
 20
50.286481588982781
 30
0.0
  0
INSERT
  5
2372
  8
0
  2
$30
 10
84.384374075433186
 20
50.286481588982781
 30
0.0
  0
INSERT
  5
2373
  8
0
  2
$34
 10
85.409374075433192
 20
49.02648158898279
 30
0.0
  0
TEXT
  5
2374
  8
0
 62
     7
 10
132.1324697816701
 20
62.640194643772539
 30
0.0
 40
0.05
  1

  7
SIMPLEX
  0
TEXT
  5
2375
  8
0
 62
     7
 10
128.91723718167
 20
63.018816443772529
 30
0.0
 40
0.075
  1

  7
ROMAND
 72
     1
 11
128.91723718167
 21
63.018816443772529
 31
0.0
  0
TEXT
  5
2376
  8
0
 62
     7
 10
110.2912326717321
 20
57.58692375305715
 30
0.0
 40
0.05
  1

  7
SIMPLEX
  0
TEXT
  5
2377
  8
0
 62
     7
 10
107.0760000717321
 20
57.965545553057147
 30
0.0
 40
0.075
  1

  7
ROMAND
 72
     1
 11
107.0760000717321
 21
57.965545553057147
 31
0.0
  0
TEXT
  5
2378
  8
0
 62
     7
 10
84.374766429333278
 20
40.939175978543922
 30
0.0
 40
0.05
  1

  7
SIMPLEX
  0
TEXT
  5
2379
  8
0
 62
     7
 10
81.15953382933327
 20
41.31779777854392
 30
0.0
 40
0.075
  1

  7
ROMAND
 72
     1
 11
81.15953382933327
 21
41.31779777854392
 31
0.0
  0
TEXT
  5
237A
  8
0
 62
     7
 10
90.909620498252167
 20
38.367635241828602
 30
0.0
 40
0.05
  1

  7
SIMPLEX
  0
TEXT
  5
237B
  8
0
 62
     7
 10
87.694387898252145
 20
38.746257041828599
 30
0.0
 40
0.075
  1

  7
ROMAND
 72
     1
 11
87.694387898252145
 21
38.746257041828599
 31
0.0
  0
TEXT
  5
237C
  8
0
 62
     7
 10
69.068383388314231
 20
33.314364351113213
 30
0.0
 40
0.05
  1

  7
SIMPLEX
  0
TEXT
  5
237D
  8
0
 62
     7
 10
65.853150788314224
 20
33.692986151113217
 30
0.0
 40
0.075
  1

  7
ROMAND
 72
     1
 11
65.853150788314224
 21
33.692986151113217
 31
0.0
  0
INSERT
  5
237E
  8
0
  2
$2
 10
70.513522447426482
 20
39.645932278686573
 30
0.0
 41
0.7507517063628413
 42
0.7507517063628413
 43
0.7507517063628413
  0
INSERT
  5
237F
  8
0
  2
$2
 10
69.987996252972493
 20
39.645932278686573
 30
0.0
 41
0.7507517063628413
 42
0.7507517063628413
 43
0.7507517063628413
  0
INSERT
  5
2380
  8
0
  2
$2
 10
68.921928829937244
 20
39.645932278686573
 30
0.0
 41
0.7507517063628413
 42
0.7507517063628413
 43
0.7507517063628413
  0
INSERT
  5
2381
  8
0
  2
$2
 10
68.392648876951455
 20
39.645932278686573
 30
0.0
 41
0.7507517063628413
 42
0.7507517063628413
 43
0.7507517063628413
  0
INSERT
  5
2382
  8
0
  2
$30
 10
67.859615165433837
 20
39.578364625113913
 30
0.0
 41
0.7507517063628413
 42
0.7507517063628413
 43
0.7507517063628413
  0
INSERT
  5
2383
  8
0
  2
$34
 10
72.315326542697292
 20
37.07836144292564
 30
0.0
 41
0.7507517063628413
 42
0.7507517063628413
 43
0.7507517063628413
  0
INSERT
  5
2384
  8
0
  2
$30
 10
67.859615165433837
 20
39.698484898131973
 30
0.0
 41
0.7507517063628413
 42
0.7507517063628413
 43
0.7507517063628413
  0
INSERT
  5
2385
  8
0
  2
$30
 10
67.859615165433837
 20
39.668454829877447
 30
0.0
 41
0.7507517063628413
 42
0.7507517063628413
 43
0.7507517063628413
  0
INSERT
  5
2386
  8
0
  2
$30
 10
67.859615165433837
 20
39.638424761622943
 30
0.0
 41
0.7507517063628413
 42
0.7507517063628413
 43
0.7507517063628413
  0
INSERT
  5
2387
  8
0
  2
$30
 10
67.859615165433837
 20
39.608394693368417
 30
0.0
 41
0.7507517063628413
 42
0.7507517063628413
 43
0.7507517063628413
  0
INSERT
  5
2388
  8
0
  2
$30
 10
71.057817434539544
 20
39.578364625113913
 30
0.0
 41
0.7507517063628413
 42
0.7507517063628413
 43
0.7507517063628413
  0
INSERT
  5
2389
  8
0
  2
$30
 10
71.057817434539544
 20
39.608394693368417
 30
0.0
 41
0.7507517063628413
 42
0.7507517063628413
 43
0.7507517063628413
  0
INSERT
  5
238A
  8
0
  2
$30
 10
71.057817434539544
 20
39.638424761622943
 30
0.0
 41
0.7507517063628413
 42
0.7507517063628413
 43
0.7507517063628413
  0
INSERT
  5
238B
  8
0
  2
$30
 10
71.057817434539544
 20
39.668454829877447
 30
0.0
 41
0.7507517063628413
 42
0.7507517063628413
 43
0.7507517063628413
  0
INSERT
  5
238C
  8
0
  2
$30
 10
71.057817434539544
 20
39.698484898131973
 30
0.0
 41
0.7507517063628413
 42
0.7507517063628413
 43
0.7507517063628413
  0
INSERT
  5
238D
  8
0
  2
$30
 10
67.859615165433837
 20
38.467252099696907
 30
0.0
 41
0.7507517063628413
 42
0.7507517063628413
 43
0.7507517063628413
  0
INSERT
  5
238E
  8
0
  2
$30
 10
67.859615165433837
 20
38.497282167951411
 30
0.0
 41
0.7507517063628413
 42
0.7507517063628413
 43
0.7507517063628413
  0
INSERT
  5
238F
  8
0
  2
$30
 10
67.859615165433837
 20
38.437222031442388
 30
0.0
 41
0.7507517063628413
 42
0.7507517063628413
 43
0.7507517063628413
  0
INSERT
  5
2390
  8
0
  2
$30
 10
67.859615165433837
 20
38.40719196318787
 30
0.0
 41
0.7507517063628413
 42
0.7507517063628413
 43
0.7507517063628413
  0
INSERT
  5
2391
  8
0
  2
$30
 10
67.859615165433837
 20
38.52731223620593
 30
0.0
 41
0.7507517063628413
 42
0.7507517063628413
 43
0.7507517063628413
  0
INSERT
  5
2392
  8
0
  2
$30
 10
67.086340907880086
 20
38.02430859294283
 30
0.0
 41
0.7507517063628413
 42
0.7507517063628413
 43
0.7507517063628413
  0
INSERT
  5
2393
  8
0
  2
$30
 10
67.056310839625596
 20
38.02430859294283
 30
0.0
 41
0.7507517063628413
 42
0.7507517063628413
 43
0.7507517063628413
  0
INSERT
  5
2394
  8
0
  2
$30
 10
67.026280771371077
 20
38.02430859294283
 30
0.0
 41
0.7507517063628413
 42
0.7507517063628413
 43
0.7507517063628413
  0
INSERT
  5
2395
  8
0
  2
$30
 10
66.996250703116573
 20
38.02430859294283
 30
0.0
 41
0.7507517063628413
 42
0.7507517063628413
 43
0.7507517063628413
  0
INSERT
  5
2396
  8
0
  2
$30
 10
66.966220634862054
 20
38.02430859294283
 30
0.0
 41
0.7507517063628413
 42
0.7507517063628413
 43
0.7507517063628413
  0
INSERT
  5
2397
  8
0
  2
$34
 10
67.735741133883963
 20
37.07836144292564
 30
0.0
 41
0.7507517063628413
 42
0.7507517063628413
 43
0.7507517063628413
  0
TEXT
  5
2398
  8
0
 62
     7
 10
102.8131849618956
 20
47.298879748743147
 30
0.0
 40
0.0375375853181421
  1

  7
SIMPLEX
  0
TEXT
  5
2399
  8
0
 62
     7
 10
100.3993436010922
 20
47.583130711159313
 30
0.0
 40
0.0563063779772131
  1

  7
ROMAND
 72
     1
 11
100.3993436010922
 21
47.583130711159313
 31
0.0
  0
TEXT
  5
239A
  8
0
 62
     7
 10
86.415838932534314
 20
43.50512800482489
 30
0.0
 40
0.0375375853181421
  1

  7
SIMPLEX
  0
TEXT
  5
239B
  8
0
 62
     7
 10
84.001997571730868
 20
43.789378967241063
 30
0.0
 40
0.0563063779772131
  1

  7
ROMAND
 72
     1
 11
84.001997571730868
 21
43.789378967241063
 31
0.0
  0
TEXT
  5
239C
  8
0
 62
     7
 10
66.9590076781584
 20
31.00680295601088
 30
0.0
 40
0.0375375853181421
  1

  7
SIMPLEX
  0
TEXT
  5
239D
  8
0
 62
     7
 10
64.545166317354969
 20
31.29105391842705
 30
0.0
 40
0.0563063779772131
  1

  7
ROMAND
 72
     1
 11
64.545166317354969
 21
31.29105391842705
 31
0.0
  0
TEXT
  5
239E
  8
0
 62
     7
 10
71.865060521231413
 20
29.076214359940298
 30
0.0
 40
0.0375375853181421
  1

  7
SIMPLEX
  0
TEXT
  5
239F
  8
0
 62
     7
 10
69.451219160427982
 20
29.360465322356472
 30
0.0
 40
0.0563063779772131
  1

  7
ROMAND
 72
     1
 11
69.451219160427982
 21
29.360465322356472
 31
0.0
  0
TEXT
  5
23A0
  8
0
 62
     7
 10
55.46771449187009
 20
25.282462616022041
 30
0.0
 40
0.0375375853181421
  1

  7
SIMPLEX
  0
TEXT
  5
23A1
  8
0
 62
     7
 10
53.053873131066652
 20
25.566713578438211
 30
0.0
 40
0.0563063779772131
  1

  7
ROMAND
 72
     1
 11
53.053873131066652
 21
25.566713578438211
 31
0.0
  0
TEXT
  5
23A2
  8
0
 62
     7
 10
55.570615537468207
 20
30.3654604528157
 30
0.0
 40
0.05
  1

  7
SIMPLEX
  0
TEXT
  5
23A3
  8
0
 62
     7
 10
52.355382937468221
 20
30.744082252815701
 30
0.0
 40
0.075
  1

  7
ROMAND
 72
     1
 11
52.355382937468221
 21
30.744082252815701
 31
0.0
  0
INSERT
  5
23A4
  8
0
  2
$2
 10
85.341630950031558
 20
46.549551082057953
 30
0.0
  0
INSERT
  5
23A5
  8
0
  2
$2
 10
84.641630950031555
 20
46.549551082057953
 30
0.0
  0
INSERT
  5
23A6
  8
0
  2
$2
 10
83.221630950031553
 20
46.549551082057953
 30
0.0
  0
INSERT
  5
23A7
  8
0
  2
$2
 10
82.516630950031555
 20
46.549551082057953
 30
0.0
  0
INSERT
  5
23A8
  8
0
  2
$30
 10
81.806630950031561
 20
46.459551082057949
 30
0.0
  0
INSERT
  5
23A9
  8
0
  2
$34
 10
87.741630950031549
 20
43.129551082057951
 30
0.0
  0
INSERT
  5
23AA
  8
0
  2
$30
 10
81.806630950031561
 20
46.619551082057953
 30
0.0
  0
INSERT
  5
23AB
  8
0
  2
$30
 10
81.806630950031561
 20
46.579551082057939
 30
0.0
  0
INSERT
  5
23AC
  8
0
  2
$30
 10
81.806630950031561
 20
46.539551082057947
 30
0.0
  0
INSERT
  5
23AD
  8
0
  2
$30
 10
81.806630950031561
 20
46.499551082057941
 30
0.0
  0
INSERT
  5
23AE
  8
0
  2
$30
 10
86.066630950031566
 20
46.459551082057949
 30
0.0
  0
INSERT
  5
23AF
  8
0
  2
$30
 10
86.066630950031566
 20
46.499551082057941
 30
0.0
  0
INSERT
  5
23B0
  8
0
  2
$30
 10
86.066630950031566
 20
46.539551082057947
 30
0.0
  0
INSERT
  5
23B1
  8
0
  2
$30
 10
86.066630950031566
 20
46.579551082057939
 30
0.0
  0
INSERT
  5
23B2
  8
0
  2
$30
 10
86.066630950031566
 20
46.619551082057953
 30
0.0
  0
INSERT
  5
23B3
  8
0
  2
$30
 10
81.806630950031561
 20
44.979551082057952
 30
0.0
  0
INSERT
  5
23B4
  8
0
  2
$30
 10
81.806630950031561
 20
45.019551082057951
 30
0.0
  0
INSERT
  5
23B5
  8
0
  2
$30
 10
81.806630950031561
 20
44.939551082057953
 30
0.0
  0
INSERT
  5
23B6
  8
0
  2
$30
 10
81.806630950031561
 20
44.899551082057947
 30
0.0
  0
INSERT
  5
23B7
  8
0
  2
$30
 10
81.806630950031561
 20
45.059551082057951
 30
0.0
  0
INSERT
  5
23B8
  8
0
  2
$30
 10
80.77663095003156
 20
44.389551082057949
 30
0.0
  0
INSERT
  5
23B9
  8
0
  2
$30
 10
80.736630950031554
 20
44.389551082057949
 30
0.0
  0
INSERT
  5
23BA
  8
0
  2
$30
 10
80.696630950031548
 20
44.389551082057949
 30
0.0
  0
INSERT
  5
23BB
  8
0
  2
$30
 10
80.656630950031555
 20
44.389551082057949
 30
0.0
  0
INSERT
  5
23BC
  8
0
  2
$30
 10
80.616630950031535
 20
44.389551082057949
 30
0.0
  0
INSERT
  5
23BD
  8
0
  2
$34
 10
81.641630950031555
 20
43.129551082057951
 30
0.0
  0
TEXT
  5
23BE
  8
0
 62
     7
 10
128.3647266562684
 20
56.743264136847699
 30
0.0
 40
0.05
  1

  7
SIMPLEX
  0
TEXT
  5
23BF
  8
0
 62
     7
 10
125.1494940562684
 20
57.121885936847697
 30
0.0
 40
0.075
  1

  7
ROMAND
 72
     1
 11
125.1494940562684
 21
57.121885936847697
 31
0.0
  0
TEXT
  5
23C0
  8
0
 62
     7
 10
106.5234895463304
 20
51.68999324613231
 30
0.0
 40
0.05
  1

  7
SIMPLEX
  0
TEXT
  5
23C1
  8
0
 62
     7
 10
103.3082569463305
 20
52.068615046132308
 30
0.0
 40
0.075
  1

  7
ROMAND
 72
     1
 11
103.3082569463305
 21
52.068615046132308
 31
0.0
  0
TEXT
  5
23C2
  8
0
 62
     7
 10
80.607023303931641
 20
35.042245471619083
 30
0.0
 40
0.05
  1

  7
SIMPLEX
  0
TEXT
  5
23C3
  8
0
 62
     7
 10
77.391790703931633
 20
35.420867271619073
 30
0.0
 40
0.075
  1

  7
ROMAND
 72
     1
 11
77.391790703931633
 21
35.420867271619073
 31
0.0
  0
TEXT
  5
23C4
  8
0
 62
     7
 10
87.14187737285053
 20
32.470704734903769
 30
0.0
 40
0.05
  1

  7
SIMPLEX
  0
TEXT
  5
23C5
  8
0
 62
     7
 10
83.926644772850523
 20
32.849326534903767
 30
0.0
 40
0.075
  1

  7
ROMAND
 72
     1
 11
83.926644772850523
 21
32.849326534903767
 31
0.0
  0
TEXT
  5
23C6
  8
0
 62
     7
 10
65.300640262912594
 20
27.41743384418838
 30
0.0
 40
0.05
  1

  7
SIMPLEX
  0
TEXT
  5
23C7
  8
0
 62
     7
 10
62.085407662912587
 20
27.796055644188371
 30
0.0
 40
0.075
  1

  7
ROMAND
 72
     1
 11
62.085407662912587
 21
27.796055644188371
 31
0.0
  0
INSERT
  5
23C8
  8
0
  2
$2
 10
53.763351122894463
 20
34.194918942410887
 30
0.0
  0
INSERT
  5
23C9
  8
0
  2
$2
 10
53.063351122894453
 20
34.194918942410887
 30
0.0
  0
INSERT
  5
23CA
  8
0
  2
$2
 10
51.643351122894458
 20
34.194918942410887
 30
0.0
  0
INSERT
  5
23CB
  8
0
  2
$2
 10
50.93835112289446
 20
34.194918942410887
 30
0.0
  0
INSERT
  5
23CC
  8
0
  2
$30
 10
50.228351122894459
 20
34.10491894241089
 30
0.0
  0
INSERT
  5
23CD
  8
0
  2
$34
 10
56.163351122894461
 20
30.774918942410888
 30
0.0
  0
INSERT
  5
23CE
  8
0
  2
$30
 10
50.228351122894459
 20
34.264918942410887
 30
0.0
  0
INSERT
  5
23CF
  8
0
  2
$30
 10
50.228351122894459
 20
34.224918942410902
 30
0.0
  0
INSERT
  5
23D0
  8
0
  2
$30
 10
50.228351122894459
 20
34.184918942410889
 30
0.0
  0
INSERT
  5
23D1
  8
0
  2
$30
 10
50.228351122894459
 20
34.144918942410889
 30
0.0
  0
INSERT
  5
23D2
  8
0
  2
$30
 10
54.488351122894457
 20
34.10491894241089
 30
0.0
  0
INSERT
  5
23D3
  8
0
  2
$30
 10
54.488351122894457
 20
34.144918942410889
 30
0.0
  0
INSERT
  5
23D4
  8
0
  2
$30
 10
54.488351122894457
 20
34.184918942410889
 30
0.0
  0
INSERT
  5
23D5
  8
0
  2
$30
 10
54.488351122894457
 20
34.224918942410902
 30
0.0
  0
INSERT
  5
23D6
  8
0
  2
$30
 10
54.488351122894457
 20
34.264918942410887
 30
0.0
  0
INSERT
  5
23D7
  8
0
  2
$30
 10
50.228351122894459
 20
32.624918942410893
 30
0.0
  0
INSERT
  5
23D8
  8
0
  2
$30
 10
50.228351122894459
 20
32.664918942410893
 30
0.0
  0
INSERT
  5
23D9
  8
0
  2
$30
 10
50.228351122894459
 20
32.584918942410887
 30
0.0
  0
INSERT
  5
23DA
  8
0
  2
$30
 10
50.228351122894459
 20
32.544918942410888
 30
0.0
  0
INSERT
  5
23DB
  8
0
  2
$30
 10
50.228351122894459
 20
32.704918942410892
 30
0.0
  0
INSERT
  5
23DC
  8
0
  2
$30
 10
49.198351122894472
 20
32.03491894241089
 30
0.0
  0
INSERT
  5
23DD
  8
0
  2
$30
 10
49.158351122894459
 20
32.03491894241089
 30
0.0
  0
INSERT
  5
23DE
  8
0
  2
$30
 10
49.118351122894467
 20
32.03491894241089
 30
0.0
  0
INSERT
  5
23DF
  8
0
  2
$30
 10
49.07835112289446
 20
32.03491894241089
 30
0.0
  0
INSERT
  5
23E0
  8
0
  2
$30
 10
49.038351122894461
 20
32.03491894241089
 30
0.0
  0
INSERT
  5
23E1
  8
0
  2
$34
 10
50.06335112289446
 20
30.774918942410888
 30
0.0
  0
TEXT
  5
23E2
  8
0
 62
     7
 10
96.786446829131322
 20
44.38863199720064
 30
0.0
 40
0.05
  1

  7
SIMPLEX
  0
TEXT
  5
23E3
  8
0
 62
     7
 10
93.571214229131314
 20
44.767253797200638
 30
0.0
 40
0.075
  1

  7
ROMAND
 72
     1
 11
93.571214229131314
 21
44.767253797200638
 31
0.0
  0
TEXT
  5
23E4
  8
0
 62
     7
 10
74.945209719193372
 20
39.335361106485252
 30
0.0
 40
0.05
  1

  7
SIMPLEX
  0
TEXT
  5
23E5
  8
0
 62
     7
 10
71.729977119193379
 20
39.713982906485263
 30
0.0
 40
0.075
  1

  7
ROMAND
 72
     1
 11
71.729977119193379
 21
39.713982906485263
 31
0.0
  0
TEXT
  5
23E6
  8
0
 62
     7
 10
49.028743476794531
 20
22.68761333197202
 30
0.0
 40
0.05
  1

  7
SIMPLEX
  0
TEXT
  5
23E7
  8
0
 62
     7
 10
45.813510876794531
 20
23.066235131972022
 30
0.0
 40
0.075
  1

  7
ROMAND
 72
     1
 11
45.813510876794531
 21
23.066235131972022
 31
0.0
  0
INSERT
  5
23E8
  8
0
  2
$2
 10
51.386903258232842
 20
30.913870852459102
 30
0.0
  0
INSERT
  5
23E9
  8
0
  2
$2
 10
50.686903258232839
 20
30.913870852459102
 30
0.0
  0
INSERT
  5
23EA
  8
0
  2
$2
 10
49.266903258232837
 20
30.913870852459102
 30
0.0
  0
INSERT
  5
23EB
  8
0
  2
$2
 10
48.561903258232839
 20
30.913870852459102
 30
0.0
  0
INSERT
  5
23EC
  8
0
  2
$30
 10
47.851903258232831
 20
30.823870852459098
 30
0.0
  0
INSERT
  5
23ED
  8
0
  2
$34
 10
53.78690325823284
 20
27.4938708524591
 30
0.0
  0
INSERT
  5
23EE
  8
0
  2
$30
 10
47.851903258232831
 20
30.983870852459098
 30
0.0
  0
INSERT
  5
23EF
  8
0
  2
$30
 10
47.851903258232831
 20
30.943870852459099
 30
0.0
  0
INSERT
  5
23F0
  8
0
  2
$30
 10
47.851903258232831
 20
30.9038708524591
 30
0.0
  0
INSERT
  5
23F1
  8
0
  2
$30
 10
47.851903258232831
 20
30.863870852459101
 30
0.0
  0
INSERT
  5
23F2
  8
0
  2
$30
 10
52.11190325823285
 20
30.823870852459098
 30
0.0
  0
INSERT
  5
23F3
  8
0
  2
$30
 10
52.11190325823285
 20
30.863870852459101
 30
0.0
  0
INSERT
  5
23F4
  8
0
  2
$30
 10
52.11190325823285
 20
30.9038708524591
 30
0.0
  0
INSERT
  5
23F5
  8
0
  2
$30
 10
52.11190325823285
 20
30.943870852459099
 30
0.0
  0
INSERT
  5
23F6
  8
0
  2
$30
 10
52.11190325823285
 20
30.983870852459098
 30
0.0
  0
INSERT
  5
23F7
  8
0
  2
$30
 10
47.851903258232831
 20
29.343870852459101
 30
0.0
  0
INSERT
  5
23F8
  8
0
  2
$30
 10
47.851903258232831
 20
29.383870852459101
 30
0.0
  0
INSERT
  5
23F9
  8
0
  2
$30
 10
47.851903258232831
 20
29.303870852459092
 30
0.0
  0
INSERT
  5
23FA
  8
0
  2
$30
 10
47.851903258232831
 20
29.2638708524591
 30
0.0
  0
INSERT
  5
23FB
  8
0
  2
$30
 10
47.851903258232831
 20
29.4238708524591
 30
0.0
  0
INSERT
  5
23FC
  8
0
  2
$30
 10
46.821903258232837
 20
28.753870852459102
 30
0.0
  0
INSERT
  5
23FD
  8
0
  2
$30
 10
46.781903258232838
 20
28.753870852459102
 30
0.0
  0
INSERT
  5
23FE
  8
0
  2
$30
 10
46.741903258232838
 20
28.753870852459102
 30
0.0
  0
INSERT
  5
23FF
  8
0
  2
$30
 10
46.701903258232839
 20
28.753870852459102
 30
0.0
  0
INSERT
  5
2400
  8
0
  2
$30
 10
46.66190325823284
 20
28.753870852459102
 30
0.0
  0
INSERT
  5
2401
  8
0
  2
$34
 10
47.686903258232853
 20
27.4938708524591
 30
0.0
  0
TEXT
  5
2402
  8
0
 62
     7
 10
94.409998964469708
 20
41.107583907248852
 30
0.0
 40
0.05
  1

  7
SIMPLEX
  0
TEXT
  5
2403
  8
0
 62
     7
 10
91.1947663644697
 20
41.486205707248843
 30
0.0
 40
0.075
  1

  7
ROMAND
 72
     1
 11
91.1947663644697
 21
41.486205707248843
 31
0.0
  0
TEXT
  5
2404
  8
0
 62
     7
 10
72.568761854531758
 20
36.054313016533463
 30
0.0
 40
0.05
  1

  7
SIMPLEX
  0
TEXT
  5
2405
  8
0
 62
     7
 10
69.353529254531765
 20
36.432934816533461
 30
0.0
 40
0.075
  1

  7
ROMAND
 72
     1
 11
69.353529254531765
 21
36.432934816533461
 31
0.0
  0
TEXT
  5
2406
  8
0
 62
     7
 10
46.65229561213291
 20
19.406565242020221
 30
0.0
 40
0.05
  1

  7
SIMPLEX
  0
TEXT
  5
2407
  8
0
 62
     7
 10
43.437063012132917
 20
19.785187042020219
 30
0.0
 40
0.075
  1

  7
ROMAND
 72
     1
 11
43.437063012132917
 21
19.785187042020219
 31
0.0
  0
TEXT
  5
2408
  8
0
 62
     7
 10
53.1871496810518
 20
16.835024505304911
 30
0.0
 40
0.05
  1

  7
SIMPLEX
  0
TEXT
  5
2409
  8
0
 62
     7
 10
49.971917081051807
 20
17.213646305304909
 30
0.0
 40
0.075
  1

  7
ROMAND
 72
     1
 11
49.971917081051807
 21
17.213646305304909
 31
0.0
  0
TEXT
  5
240A
  8
0
 62
     7
 10
31.345912571113882
 20
11.781753614589521
 30
0.0
 40
0.05
  1

  7
SIMPLEX
  0
TEXT
  5
240B
  8
0
 62
     7
 10
28.130679971113871
 20
12.16037541458952
 30
0.0
 40
0.075
  1

  7
ROMAND
 72
     1
 11
28.130679971113871
 21
12.16037541458952
 31
0.0
  0
INSERT
  5
240C
  8
0
  2
$2
 10
32.791051630226121
 20
18.113321542162868
 30
0.0
 41
0.7507517063628418
 42
0.7507517063628418
 43
0.7507517063628418
  0
INSERT
  5
240D
  8
0
  2
$2
 10
32.265525435772133
 20
18.113321542162868
 30
0.0
 41
0.7507517063628418
 42
0.7507517063628418
 43
0.7507517063628418
  0
INSERT
  5
240E
  8
0
  2
$2
 10
31.199458012736901
 20
18.113321542162868
 30
0.0
 41
0.7507517063628418
 42
0.7507517063628418
 43
0.7507517063628418
  0
INSERT
  5
240F
  8
0
  2
$2
 10
30.670178059751098
 20
18.113321542162868
 30
0.0
 41
0.7507517063628418
 42
0.7507517063628418
 43
0.7507517063628418
  0
INSERT
  5
2410
  8
0
  2
$30
 10
30.13714434823348
 20
18.045753888590209
 30
0.0
 41
0.7507517063628418
 42
0.7507517063628418
 43
0.7507517063628418
  0
INSERT
  5
2411
  8
0
  2
$34
 10
34.592855725496953
 20
15.54575070640195
 30
0.0
 41
0.7507517063628418
 42
0.7507517063628418
 43
0.7507517063628418
  0
INSERT
  5
2412
  8
0
  2
$30
 10
30.13714434823348
 20
18.165874161608269
 30
0.0
 41
0.7507517063628418
 42
0.7507517063628418
 43
0.7507517063628418
  0
INSERT
  5
2413
  8
0
  2
$30
 10
30.13714434823348
 20
18.13584409335375
 30
0.0
 41
0.7507517063628418
 42
0.7507517063628418
 43
0.7507517063628418
  0
INSERT
  5
2414
  8
0
  2
$30
 10
30.13714434823348
 20
18.105814025099239
 30
0.0
 41
0.7507517063628418
 42
0.7507517063628418
 43
0.7507517063628418
  0
INSERT
  5
2415
  8
0
  2
$30
 10
30.13714434823348
 20
18.07578395684472
 30
0.0
 41
0.7507517063628418
 42
0.7507517063628418
 43
0.7507517063628418
  0
INSERT
  5
2416
  8
0
  2
$30
 10
33.335346617339177
 20
18.045753888590209
 30
0.0
 41
0.7507517063628418
 42
0.7507517063628418
 43
0.7507517063628418
  0
INSERT
  5
2417
  8
0
  2
$30
 10
33.335346617339177
 20
18.07578395684472
 30
0.0
 41
0.7507517063628418
 42
0.7507517063628418
 43
0.7507517063628418
  0
INSERT
  5
2418
  8
0
  2
$30
 10
33.335346617339177
 20
18.105814025099239
 30
0.0
 41
0.7507517063628418
 42
0.7507517063628418
 43
0.7507517063628418
  0
INSERT
  5
2419
  8
0
  2
$30
 10
33.335346617339177
 20
18.13584409335375
 30
0.0
 41
0.7507517063628418
 42
0.7507517063628418
 43
0.7507517063628418
  0
INSERT
  5
241A
  8
0
  2
$30
 10
33.335346617339177
 20
18.165874161608269
 30
0.0
 41
0.7507517063628418
 42
0.7507517063628418
 43
0.7507517063628418
  0
INSERT
  5
241B
  8
0
  2
$30
 10
30.13714434823348
 20
16.93464136317321
 30
0.0
 41
0.7507517063628418
 42
0.7507517063628418
 43
0.7507517063628418
  0
INSERT
  5
241C
  8
0
  2
$30
 10
30.13714434823348
 20
16.964671431427721
 30
0.0
 41
0.7507517063628418
 42
0.7507517063628418
 43
0.7507517063628418
  0
INSERT
  5
241D
  8
0
  2
$30
 10
30.13714434823348
 20
16.904611294918691
 30
0.0
 41
0.7507517063628418
 42
0.7507517063628418
 43
0.7507517063628418
  0
INSERT
  5
241E
  8
0
  2
$30
 10
30.13714434823348
 20
16.87458122666418
 30
0.0
 41
0.7507517063628418
 42
0.7507517063628418
 43
0.7507517063628418
  0
INSERT
  5
241F
  8
0
  2
$30
 10
30.13714434823348
 20
16.994701499682229
 30
0.0
 41
0.7507517063628418
 42
0.7507517063628418
 43
0.7507517063628418
  0
INSERT
  5
2420
  8
0
  2
$30
 10
29.363870090679761
 20
16.49169785641913
 30
0.0
 41
0.7507517063628418
 42
0.7507517063628418
 43
0.7507517063628418
  0
INSERT
  5
2421
  8
0
  2
$30
 10
29.333840022425239
 20
16.49169785641913
 30
0.0
 41
0.7507517063628418
 42
0.7507517063628418
 43
0.7507517063628418
  0
INSERT
  5
2422
  8
0
  2
$30
 10
29.303809954170731
 20
16.49169785641913
 30
0.0
 41
0.7507517063628418
 42
0.7507517063628418
 43
0.7507517063628418
  0
INSERT
  5
2423
  8
0
  2
$30
 10
29.273779885916209
 20
16.49169785641913
 30
0.0
 41
0.7507517063628418
 42
0.7507517063628418
 43
0.7507517063628418
  0
INSERT
  5
2424
  8
0
  2
$30
 10
29.243749817661691
 20
16.49169785641913
 30
0.0
 41
0.7507517063628418
 42
0.7507517063628418
 43
0.7507517063628418
  0
INSERT
  5
2425
  8
0
  2
$34
 10
30.013270316683609
 20
15.54575070640195
 30
0.0
 41
0.7507517063628418
 42
0.7507517063628418
 43
0.7507517063628418
  0
TEXT
  5
2426
  8
0
 62
     7
 10
65.090714144695298
 20
25.76626901221945
 30
0.0
 40
0.0375375853181421
  1

  7
SIMPLEX
  0
TEXT
  5
2427
  8
0
 62
     7
 10
62.676872783891852
 20
26.05051997463562
 30
0.0
 40
0.0563063779772131
  1

  7
ROMAND
 72
     1
 11
62.676872783891852
 21
26.05051997463562
 31
0.0
  0
TEXT
  5
2428
  8
0
 62
     7
 10
48.693368115333953
 20
21.9725172683012
 30
0.0
 40
0.0375375853181421
  1

  7
SIMPLEX
  0
TEXT
  5
2429
  8
0
 62
     7
 10
46.279526754530522
 20
22.256768230717359
 30
0.0
 40
0.0563063779772131
  1

  7
ROMAND
 72
     1
 11
46.279526754530522
 21
22.256768230717359
 31
0.0
  0
TEXT
  5
242A
  8
0
 62
     7
 10
29.236536860958051
 20
9.4741922194871826
 30
0.0
 40
0.0375375853181421
  1

  7
SIMPLEX
  0
TEXT
  5
242B
  8
0
 62
     7
 10
26.822695500154619
 20
9.7584431819033526
 30
0.0
 40
0.0563063779772131
  1

  7
ROMAND
 72
     1
 11
26.822695500154619
 21
9.7584431819033526
 31
0.0
  0
TEXT
  5
242C
  8
0
 62
     7
 10
34.142589704031067
 20
7.5436036234166011
 30
0.0
 40
0.0375375853181421
  1

  7
SIMPLEX
  0
TEXT
  5
242D
  8
0
 62
     7
 10
31.728748343227629
 20
7.8278545858327719
 30
0.0
 40
0.0563063779772131
  1

  7
ROMAND
 72
     1
 11
31.728748343227629
 21
7.8278545858327719
 31
0.0
  0
TEXT
  5
242E
  8
0
 62
     7
 10
17.745243674669741
 20
3.7498518794983462
 30
0.0
 40
0.0375375853181421
  1

  7
SIMPLEX
  0
TEXT
  5
242F
  8
0
 62
     7
 10
15.331402313866301
 20
4.0341028419145166
 30
0.0
 40
0.0563063779772131
  1

  7
ROMAND
 72
     1
 11
15.331402313866301
 21
4.0341028419145166
 31
0.0
  0
TEXT
  5
2430
  8
0
 62
     7
 10
17.848144720267861
 20
8.8328497162920012
 30
0.0
 40
0.05
  1

  7
SIMPLEX
  0
TEXT
  5
2431
  8
0
 62
     7
 10
14.632912120267861
 20
9.2114715162920042
 30
0.0
 40
0.075
  1

  7
ROMAND
 72
     1
 11
14.632912120267861
 21
9.2114715162920042
 31
0.0
  0
INSERT
  5
2432
  8
0
  2
$2
 10
31.69750708166244
 20
23.422514040182829
 30
0.0
  0
INSERT
  5
2433
  8
0
  2
$2
 10
30.997507081662441
 20
23.422514040182829
 30
0.0
  0
INSERT
  5
2434
  8
0
  2
$2
 10
29.577507081662439
 20
23.422514040182829
 30
0.0
  0
INSERT
  5
2435
  8
0
  2
$2
 10
28.872507081662441
 20
23.422514040182829
 30
0.0
  0
INSERT
  5
2436
  8
0
  2
$30
 10
28.16250708166244
 20
23.332514040182829
 30
0.0
  0
INSERT
  5
2437
  8
0
  2
$34
 10
34.097507081662442
 20
20.002514040182831
 30
0.0
  0
INSERT
  5
2438
  8
0
  2
$30
 10
28.16250708166244
 20
23.492514040182829
 30
0.0
  0
INSERT
  5
2439
  8
0
  2
$30
 10
28.16250708166244
 20
23.45251404018283
 30
0.0
  0
INSERT
  5
243A
  8
0
  2
$30
 10
28.16250708166244
 20
23.412514040182831
 30
0.0
  0
INSERT
  5
243B
  8
0
  2
$30
 10
28.16250708166244
 20
23.372514040182828
 30
0.0
  0
INSERT
  5
243C
  8
0
  2
$30
 10
32.422507081662438
 20
23.332514040182829
 30
0.0
  0
INSERT
  5
243D
  8
0
  2
$30
 10
32.422507081662438
 20
23.372514040182828
 30
0.0
  0
INSERT
  5
243E
  8
0
  2
$30
 10
32.422507081662438
 20
23.412514040182831
 30
0.0
  0
INSERT
  5
243F
  8
0
  2
$30
 10
32.422507081662438
 20
23.45251404018283
 30
0.0
  0
INSERT
  5
2440
  8
0
  2
$30
 10
32.422507081662438
 20
23.492514040182829
 30
0.0
  0
INSERT
  5
2441
  8
0
  2
$30
 10
28.16250708166244
 20
21.852514040182829
 30
0.0
  0
INSERT
  5
2442
  8
0
  2
$30
 10
28.16250708166244
 20
21.892514040182832
 30
0.0
  0
INSERT
  5
2443
  8
0
  2
$30
 10
28.16250708166244
 20
21.81251404018283
 30
0.0
  0
INSERT
  5
2444
  8
0
  2
$30
 10
28.16250708166244
 20
21.772514040182831
 30
0.0
  0
INSERT
  5
2445
  8
0
  2
$30
 10
28.16250708166244
 20
21.932514040182831
 30
0.0
  0
INSERT
  5
2446
  8
0
  2
$30
 10
27.132507081662439
 20
21.262514040182829
 30
0.0
  0
INSERT
  5
2447
  8
0
  2
$30
 10
27.09250708166244
 20
21.262514040182829
 30
0.0
  0
INSERT
  5
2448
  8
0
  2
$30
 10
27.052507081662441
 20
21.262514040182829
 30
0.0
  0
INSERT
  5
2449
  8
0
  2
$30
 10
27.012507081662442
 20
21.262514040182829
 30
0.0
  0
INSERT
  5
244A
  8
0
  2
$30
 10
26.972507081662439
 20
21.262514040182829
 30
0.0
  0
INSERT
  5
244B
  8
0
  2
$34
 10
27.997507081662441
 20
20.002514040182831
 30
0.0
  0
TEXT
  5
244C
  8
0
 62
     7
 10
74.720602787899296
 20
33.616227094972579
 30
0.0
 40
0.05
  1

  7
SIMPLEX
  0
TEXT
  5
244D
  8
0
 62
     7
 10
71.505370187899288
 20
33.994848894972577
 30
0.0
 40
0.075
  1

  7
ROMAND
 72
     1
 11
71.505370187899288
 21
33.994848894972577
 31
0.0
  0
TEXT
  5
244E
  8
0
 62
     7
 10
52.879365677961353
 20
28.562956204257191
 30
0.0
 40
0.05
  1

  7
SIMPLEX
  0
TEXT
  5
244F
  8
0
 62
     7
 10
49.664133077961353
 20
28.941578004257192
 30
0.0
 40
0.075
  1

  7
ROMAND
 72
     1
 11
49.664133077961353
 21
28.941578004257192
 31
0.0
  0
TEXT
  5
2450
  8
0
 62
     7
 10
26.96289943556252
 20
11.91520842974395
 30
0.0
 40
0.05
  1

  7
SIMPLEX
  0
TEXT
  5
2451
  8
0
 62
     7
 10
23.747666835562519
 20
12.293830229743961
 30
0.0
 40
0.075
  1

  7
ROMAND
 72
     1
 11
23.747666835562519
 21
12.293830229743961
 31
0.0
  0
TEXT
  5
2452
  8
0
 62
     7
 10
33.497753504481409
 20
9.3436676930286424
 30
0.0
 40
0.05
  1

  7
SIMPLEX
  0
TEXT
  5
2453
  8
0
 62
     7
 10
30.282520904481409
 20
9.7222894930286436
 30
0.0
 40
0.075
  1

  7
ROMAND
 72
     1
 11
30.282520904481409
 21
9.7222894930286436
 31
0.0
  0
TEXT
  5
2454
  8
0
 62
     7
 10
11.65651639454347
 20
4.2903968023132544
 30
0.0
 40
0.05
  1

  7
SIMPLEX
  0
TEXT
  5
2455
  8
0
 62
     7
 10
8.4412837945434696
 20
4.6690186023132538
 30
0.0
 40
0.075
  1

  7
ROMAND
 72
     1
 11
8.4412837945434696
 21
4.6690186023132538
 31
0.0
  0
INSERT
  5
2456
  8
0
  2
$2
 10
40.896264381198989
 20
15.43675541686317
 30
0.0
 41
1.1399459025597869
 42
1.1399459025597869
 43
1.1399459025597869
  0
INSERT
  5
2457
  8
0
  2
$2
 10
40.098302249407141
 20
15.43675541686317
 30
0.0
 41
1.1399459025597869
 42
1.1399459025597869
 43
1.1399459025597869
  0
INSERT
  5
2458
  8
0
  2
$2
 10
38.479579067772249
 20
15.43675541686317
 30
0.0
 41
1.1399459025597869
 42
1.1399459025597869
 43
1.1399459025597869
  0
INSERT
  5
2459
  8
0
  2
$2
 10
37.675917206467602
 20
15.43675541686317
 30
0.0
 41
1.1399459025597869
 42
1.1399459025597869
 43
1.1399459025597869
  0
INSERT
  5
245A
  8
0
  2
$30
 10
36.866555615650142
 20
15.33416028563278
 30
0.0
 41
1.1399459025597869
 42
1.1399459025597869
 43
1.1399459025597869
  0
INSERT
  5
245B
  8
0
  2
$34
 10
43.632134547342481
 20
11.53814043010869
 30
0.0
 41
1.1399459025597869
 42
1.1399459025597869
 43
1.1399459025597869
  0
INSERT
  5
245C
  8
0
  2
$30
 10
36.866555615650142
 20
15.51655163004235
 30
0.0
 41
1.1399459025597869
 42
1.1399459025597869
 43
1.1399459025597869
  0
INSERT
  5
245D
  8
0
  2
$30
 10
36.866555615650142
 20
15.470953793939961
 30
0.0
 41
1.1399459025597869
 42
1.1399459025597869
 43
1.1399459025597869
  0
INSERT
  5
245E
  8
0
  2
$30
 10
36.866555615650142
 20
15.42535595783756
 30
0.0
 41
1.1399459025597869
 42
1.1399459025597869
 43
1.1399459025597869
  0
INSERT
  5
245F
  8
0
  2
$30
 10
36.866555615650142
 20
15.37975812173517
 30
0.0
 41
1.1399459025597869
 42
1.1399459025597869
 43
1.1399459025597869
  0
INSERT
  5
2460
  8
0
  2
$30
 10
41.722725160554837
 20
15.33416028563278
 30
0.0
 41
1.1399459025597869
 42
1.1399459025597869
 43
1.1399459025597869
  0
INSERT
  5
2461
  8
0
  2
$30
 10
41.722725160554837
 20
15.37975812173517
 30
0.0
 41
1.1399459025597869
 42
1.1399459025597869
 43
1.1399459025597869
  0
INSERT
  5
2462
  8
0
  2
$30
 10
41.722725160554837
 20
15.42535595783756
 30
0.0
 41
1.1399459025597869
 42
1.1399459025597869
 43
1.1399459025597869
  0
INSERT
  5
2463
  8
0
  2
$30
 10
41.722725160554837
 20
15.470953793939961
 30
0.0
 41
1.1399459025597869
 42
1.1399459025597869
 43
1.1399459025597869
  0
INSERT
  5
2464
  8
0
  2
$30
 10
41.722725160554837
 20
15.51655163004235
 30
0.0
 41
1.1399459025597869
 42
1.1399459025597869
 43
1.1399459025597869
  0
INSERT
  5
2465
  8
0
  2
$30
 10
36.866555615650142
 20
13.6470403498443
 30
0.0
 41
1.1399459025597869
 42
1.1399459025597869
 43
1.1399459025597869
  0
INSERT
  5
2466
  8
0
  2
$30
 10
36.866555615650142
 20
13.69263818594669
 30
0.0
 41
1.1399459025597869
 42
1.1399459025597869
 43
1.1399459025597869
  0
INSERT
  5
2467
  8
0
  2
$30
 10
36.866555615650142
 20
13.601442513741899
 30
0.0
 41
1.1399459025597869
 42
1.1399459025597869
 43
1.1399459025597869
  0
INSERT
  5
2468
  8
0
  2
$30
 10
36.866555615650142
 20
13.555844677639509
 30
0.0
 41
1.1399459025597869
 42
1.1399459025597869
 43
1.1399459025597869
  0
INSERT
  5
2469
  8
0
  2
$30
 10
36.866555615650142
 20
13.73823602204908
 30
0.0
 41
1.1399459025597869
 42
1.1399459025597869
 43
1.1399459025597869
  0
INSERT
  5
246A
  8
0
  2
$30
 10
35.692411336013564
 20
12.97447226733402
 30
0.0
 41
1.1399459025597869
 42
1.1399459025597869
 43
1.1399459025597869
  0
INSERT
  5
246B
  8
0
  2
$30
 10
35.646813499911183
 20
12.97447226733402
 30
0.0
 41
1.1399459025597869
 42
1.1399459025597869
 43
1.1399459025597869
  0
INSERT
  5
246C
  8
0
  2
$30
 10
35.601215663808773
 20
12.97447226733402
 30
0.0
 41
1.1399459025597869
 42
1.1399459025597869
 43
1.1399459025597869
  0
INSERT
  5
246D
  8
0
  2
$30
 10
35.555617827706392
 20
12.97447226733402
 30
0.0
 41
1.1399459025597869
 42
1.1399459025597869
 43
1.1399459025597869
  0
INSERT
  5
246E
  8
0
  2
$30
 10
35.510019991603997
 20
12.97447226733402
 30
0.0
 41
1.1399459025597869
 42
1.1399459025597869
 43
1.1399459025597869
  0
INSERT
  5
246F
  8
0
  2
$34
 10
36.678464541727777
 20
11.53814043010869
 30
0.0
 41
1.1399459025597869
 42
1.1399459025597869
 43
1.1399459025597869
  0
TEXT
  5
2470
  8
0
 62
     7
 10
89.940266046961341
 20
27.05703684554096
 30
0.0
 40
0.0569972951279894
  1

  7
SIMPLEX
  0
TEXT
  5
2471
  8
0
 62
     7
 10
86.275074818814645
 20
27.488645215070768
 30
0.0
 40
0.0854959426919841
  1

  7
ROMAND
 72
     1
 11
86.275074818814645
 21
27.488645215070768
 31
0.0
  0
TEXT
  5
2472
  8
0
 62
     7
 10
65.042437296650775
 20
21.2965813991453
 30
0.0
 40
0.0569972951279894
  1

  7
SIMPLEX
  0
TEXT
  5
2473
  8
0
 62
     7
 10
61.377246068504121
 20
21.728189768675119
 30
0.0
 40
0.0854959426919841
  1

  7
ROMAND
 72
     1
 11
61.377246068504121
 21
21.728189768675119
 31
0.0
  0
TEXT
  5
2474
  8
0
 62
     7
 10
35.499067794799153
 20
2.3190495367401089
 30
0.0
 40
0.0569972951279894
  1

  7
SIMPLEX
  0
TEXT
  5
2475
  8
0
 62
     7
 10
31.833876566652489
 20
2.750657906269923
 30
0.0
 40
0.0854959426919841
  1

  7
ROMAND
 72
     1
 11
31.833876566652489
 21
2.750657906269923
 31
0.0
  0
TEXT
  5
2476
  8
0
 62
     7
 10
42.948447914489392
 20
-0.6123677893440888
 30
0.0
 40
0.0569972951279894
  1

  7
SIMPLEX
  0
TEXT
  5
2477
  8
0
 62
     7
 10
39.283256686342753
 20
-0.1807594198142768
 30
0.0
 40
0.0854959426919841
  1

  7
ROMAND
 72
     1
 11
39.283256686342753
 21
-0.1807594198142768
 31
0.0
  0
TEXT
  5
2478
  8
0
 62
     7
 10
18.050619164178858
 20
-6.3728232357397463
 30
0.0
 40
0.0569972951279894
  1

  7
SIMPLEX
  0
TEXT
  5
2479
  8
0
 62
     7
 10
14.385427936032199
 20
-5.9412148662099344
 30
0.0
 40
0.0854959426919841
  1

  7
ROMAND
 72
     1
 11
14.385427936032199
 21
-5.9412148662099344
 31
0.0
  0
TEXT
  5
247A
  8
0
 62
     7
 10
6.5346231000000001
 20
1.0459172999999999
 30
0.0
 40
0.05
  1

  7
SIMPLEX
  0
TEXT
  5
247B
  8
0
 62
     7
 10
3.319390499999999
 20
1.4245391000000001
 30
0.0
 40
0.075
  1

  7
TXT
 72
     1
 11
3.319390499999999
 21
1.4245391000000001
 31
0.0
  0
TEXT
  5
470D
  8
0
 62
     7
 10
23.459251658942271
 20
13.025317074188351
 30
0.0
 40
0.075
  1

  7
ROMAND
 72
     1
 11
23.459251658942271
 21
13.025317074188351
 31
0.0
  0
TEXT
  5
470E
  8
0
 62
     7
 10
26.674484258942272
 20
12.64669527418835
 30
0.0
 40
0.05
  1

  7
SIMPLEX
  0
TEXT
  5
470F
  8
0
 62
     7
 10
24.15774185254071
 20
7.8479483998108641
 30
0.0
 40
0.0563063779772131
  1

  7
ROMAND
 72
     1
 11
24.15774185254071
 21
7.8479483998108641
 31
0.0
  0
TEXT
  5
4710
  8
0
 62
     7
 10
26.571583213344152
 20
7.5636974373946941
 30
0.0
 40
0.0375375853181421
  1

  7
SIMPLEX
  0
TEXT
  5
4711
  8
0
 62
     7
 10
40.55508788190204
 20
11.641700143729119
 30
0.0
 40
0.0563063779772131
  1

  7
ROMAND
 72
     1
 11
40.55508788190204
 21
11.641700143729119
 31
0.0
  0
TEXT
  5
4712
  8
0
 62
     7
 10
42.968929242705471
 20
11.357449181312949
 30
0.0
 40
0.0375375853181421
  1

  7
SIMPLEX
  0
TEXT
  5
4713
  8
0
 62
     7
 10
35.649035038829027
 20
13.572288739799699
 30
0.0
 40
0.0563063779772131
  1

  7
ROMAND
 72
     1
 11
35.649035038829027
 21
13.572288739799699
 31
0.0
  0
TEXT
  5
4714
  8
0
 62
     7
 10
38.062876399632458
 20
13.288037777383529
 30
0.0
 40
0.0375375853181421
  1

  7
SIMPLEX
  0
TEXT
  5
4715
  8
0
 62
     7
 10
55.105866293204933
 20
26.070613788613709
 30
0.0
 40
0.0563063779772131
  1

  7
ROMAND
 72
     1
 11
55.105866293204933
 21
26.070613788613709
 31
0.0
  0
TEXT
  5
4716
  8
0
 62
     7
 10
57.519707654008357
 20
25.78636282619755
 30
0.0
 40
0.0375375853181421
  1

  7
SIMPLEX
  0
TEXT
  5
4717
  8
0
 62
     7
 10
71.50321232256627
 20
29.86436553253197
 30
0.0
 40
0.0563063779772131
  1

  7
ROMAND
 72
     1
 11
71.50321232256627
 21
29.86436553253197
 31
0.0
  0
TEXT
  5
4718
  8
0
 62
     7
 10
73.917053683369716
 20
29.580114570115789
 30
0.0
 40
0.0375375853181421
  1

  7
SIMPLEX
  0
INSERT
  5
4719
  8
0
  2
$34
 10
38.83960985535802
 20
19.3595962642983
 30
0.0
 41
0.7507517063628413
 42
0.7507517063628413
 43
0.7507517063628413
  0
INSERT
  5
471A
  8
0
  2
$30
 10
38.070089356336112
 20
20.30554341431548
 30
0.0
 41
0.7507517063628413
 42
0.7507517063628413
 43
0.7507517063628413
  0
INSERT
  5
471B
  8
0
  2
$30
 10
38.100119424590631
 20
20.30554341431548
 30
0.0
 41
0.7507517063628413
 42
0.7507517063628413
 43
0.7507517063628413
  0
INSERT
  5
471C
  8
0
  2
$30
 10
38.130149492845142
 20
20.30554341431548
 30
0.0
 41
0.7507517063628413
 42
0.7507517063628413
 43
0.7507517063628413
  0
INSERT
  5
471D
  8
0
  2
$30
 10
38.160179561099653
 20
20.30554341431548
 30
0.0
 41
0.7507517063628413
 42
0.7507517063628413
 43
0.7507517063628413
  0
INSERT
  5
471E
  8
0
  2
$30
 10
38.190209629354172
 20
20.30554341431548
 30
0.0
 41
0.7507517063628413
 42
0.7507517063628413
 43
0.7507517063628413
  0
INSERT
  5
471F
  8
0
  2
$30
 10
38.963483886907888
 20
20.808547057578579
 30
0.0
 41
0.7507517063628413
 42
0.7507517063628413
 43
0.7507517063628413
  0
INSERT
  5
4720
  8
0
  2
$30
 10
38.963483886907888
 20
20.68842678456053
 30
0.0
 41
0.7507517063628413
 42
0.7507517063628413
 43
0.7507517063628413
  0
INSERT
  5
4721
  8
0
  2
$30
 10
38.963483886907888
 20
20.718456852815041
 30
0.0
 41
0.7507517063628413
 42
0.7507517063628413
 43
0.7507517063628413
  0
INSERT
  5
4722
  8
0
  2
$30
 10
38.963483886907888
 20
20.778516989324071
 30
0.0
 41
0.7507517063628413
 42
0.7507517063628413
 43
0.7507517063628413
  0
INSERT
  5
4723
  8
0
  2
$30
 10
38.963483886907888
 20
20.748486921069549
 30
0.0
 41
0.7507517063628413
 42
0.7507517063628413
 43
0.7507517063628413
  0
INSERT
  5
4724
  8
0
  2
$30
 10
42.161686156013587
 20
21.979719719504619
 30
0.0
 41
0.7507517063628413
 42
0.7507517063628413
 43
0.7507517063628413
  0
INSERT
  5
4725
  8
0
  2
$30
 10
42.161686156013587
 20
21.9496896512501
 30
0.0
 41
0.7507517063628413
 42
0.7507517063628413
 43
0.7507517063628413
  0
INSERT
  5
4726
  8
0
  2
$30
 10
42.161686156013587
 20
21.919659582995589
 30
0.0
 41
0.7507517063628413
 42
0.7507517063628413
 43
0.7507517063628413
  0
INSERT
  5
4727
  8
0
  2
$30
 10
42.161686156013587
 20
21.88962951474107
 30
0.0
 41
0.7507517063628413
 42
0.7507517063628413
 43
0.7507517063628413
  0
INSERT
  5
4728
  8
0
  2
$30
 10
42.161686156013587
 20
21.859599446486559
 30
0.0
 41
0.7507517063628413
 42
0.7507517063628413
 43
0.7507517063628413
  0
INSERT
  5
4729
  8
0
  2
$30
 10
38.963483886907888
 20
21.88962951474107
 30
0.0
 41
0.7507517063628413
 42
0.7507517063628413
 43
0.7507517063628413
  0
INSERT
  5
472A
  8
0
  2
$30
 10
38.963483886907888
 20
21.919659582995589
 30
0.0
 41
0.7507517063628413
 42
0.7507517063628413
 43
0.7507517063628413
  0
INSERT
  5
472B
  8
0
  2
$30
 10
38.963483886907888
 20
21.9496896512501
 30
0.0
 41
0.7507517063628413
 42
0.7507517063628413
 43
0.7507517063628413
  0
INSERT
  5
472C
  8
0
  2
$30
 10
38.963483886907888
 20
21.979719719504619
 30
0.0
 41
0.7507517063628413
 42
0.7507517063628413
 43
0.7507517063628413
  0
INSERT
  5
472D
  8
0
  2
$34
 10
43.41919526417135
 20
19.3595962642983
 30
0.0
 41
0.7507517063628413
 42
0.7507517063628413
 43
0.7507517063628413
  0
INSERT
  5
472E
  8
0
  2
$30
 10
38.963483886907888
 20
21.859599446486559
 30
0.0
 41
0.7507517063628413
 42
0.7507517063628413
 43
0.7507517063628413
  0
INSERT
  5
472F
  8
0
  2
$2
 10
39.496517598425513
 20
21.927167100059219
 30
0.0
 41
0.7507517063628413
 42
0.7507517063628413
 43
0.7507517063628413
  0
INSERT
  5
4730
  8
0
  2
$2
 10
40.025797551411301
 20
21.927167100059219
 30
0.0
 41
0.7507517063628413
 42
0.7507517063628413
 43
0.7507517063628413
  0
INSERT
  5
4731
  8
0
  2
$2
 10
41.091864974446537
 20
21.927167100059219
 30
0.0
 41
0.7507517063628413
 42
0.7507517063628413
 43
0.7507517063628413
  0
INSERT
  5
4732
  8
0
  2
$2
 10
41.617391168900532
 20
21.927167100059219
 30
0.0
 41
0.7507517063628413
 42
0.7507517063628413
 43
0.7507517063628413
  0
TEXT
  5
4733
  8
0
 62
     7
 10
36.957019509788282
 20
15.97422097248587
 30
0.0
 40
0.075
  1

  7
ROMAND
 72
     1
 11
36.957019509788282
 21
15.97422097248587
 31
0.0
  0
TEXT
  5
4734
  8
0
 62
     7
 10
40.172252109788282
 20
15.59559917248586
 30
0.0
 40
0.05
  1

  7
SIMPLEX
  0
TEXT
  5
4735
  8
0
 62
     7
 10
58.798256619726217
 20
21.027491863201259
 30
0.0
 40
0.075
  1

  7
ROMAND
 72
     1
 11
58.798256619726217
 21
21.027491863201259
 31
0.0
  0
TEXT
  5
4736
  8
0
 62
     7
 10
62.013489219726218
 20
20.648870063201251
 30
0.0
 40
0.05
  1

  7
SIMPLEX
  0
TEXT
  5
4737
  8
0
 62
     7
 10
52.263402550807328
 20
23.599032599916569
 30
0.0
 40
0.075
  1

  7
ROMAND
 72
     1
 11
52.263402550807328
 21
23.599032599916569
 31
0.0
  0
TEXT
  5
4738
  8
0
 62
     7
 10
55.478635150807328
 20
23.220410799916571
 30
0.0
 40
0.05
  1

  7
SIMPLEX
  0
TEXT
  5
4739
  8
0
 62
     7
 10
78.179868793206168
 20
40.246780374429797
 30
0.0
 40
0.075
  1

  7
ROMAND
 72
     1
 11
78.179868793206168
 21
40.246780374429797
 31
0.0
  0
TEXT
  5
473A
  8
0
 62
     7
 10
81.395101393206176
 20
39.868158574429799
 30
0.0
 40
0.05
  1

  7
SIMPLEX
  0
TEXT
  5
473B
  8
0
 62
     7
 10
100.0211059031441
 20
45.300051265145193
 30
0.0
 40
0.075
  1

  7
ROMAND
 72
     1
 11
100.0211059031441
 21
45.300051265145193
 31
0.0
  0
TEXT
  5
473C
  8
0
 62
     7
 10
103.2363385031441
 20
44.921429465145181
 30
0.0
 40
0.05
  1

  7
SIMPLEX
  0
INSERT
  5
473D
  8
0
  2
$34
 10
56.513242796907257
 20
31.30771641035545
 30
0.0
  0
INSERT
  5
473E
  8
0
  2
$30
 10
55.488242796907251
 20
32.567716410355438
 30
0.0
  0
INSERT
  5
473F
  8
0
  2
$30
 10
55.52824279690725
 20
32.567716410355438
 30
0.0
  0
INSERT
  5
4740
  8
0
  2
$30
 10
55.568242796907249
 20
32.567716410355438
 30
0.0
  0
INSERT
  5
4741
  8
0
  2
$30
 10
55.608242796907248
 20
32.567716410355438
 30
0.0
  0
INSERT
  5
4742
  8
0
  2
$30
 10
55.648242796907248
 20
32.567716410355438
 30
0.0
  0
INSERT
  5
4743
  8
0
  2
$30
 10
56.678242796907249
 20
33.237716410355439
 30
0.0
  0
INSERT
  5
4744
  8
0
  2
$30
 10
56.678242796907249
 20
33.077716410355443
 30
0.0
  0
INSERT
  5
4745
  8
0
  2
$30
 10
56.678242796907249
 20
33.117716410355442
 30
0.0
  0
INSERT
  5
4746
  8
0
  2
$30
 10
56.678242796907249
 20
33.197716410355447
 30
0.0
  0
INSERT
  5
4747
  8
0
  2
$30
 10
56.678242796907249
 20
33.157716410355441
 30
0.0
  0
INSERT
  5
4748
  8
0
  2
$30
 10
60.938242796907247
 20
34.797716410355441
 30
0.0
  0
INSERT
  5
4749
  8
0
  2
$30
 10
60.938242796907247
 20
34.757716410355449
 30
0.0
  0
INSERT
  5
474A
  8
0
  2
$30
 10
60.938242796907247
 20
34.71771641035545
 30
0.0
  0
INSERT
  5
474B
  8
0
  2
$30
 10
60.938242796907247
 20
34.677716410355437
 30
0.0
  0
INSERT
  5
474C
  8
0
  2
$30
 10
60.938242796907247
 20
34.637716410355452
 30
0.0
  0
INSERT
  5
474D
  8
0
  2
$30
 10
56.678242796907249
 20
34.677716410355437
 30
0.0
  0
INSERT
  5
474E
  8
0
  2
$30
 10
56.678242796907249
 20
34.71771641035545
 30
0.0
  0
INSERT
  5
474F
  8
0
  2
$30
 10
56.678242796907249
 20
34.757716410355449
 30
0.0
  0
INSERT
  5
4750
  8
0
  2
$30
 10
56.678242796907249
 20
34.797716410355441
 30
0.0
  0
INSERT
  5
4751
  8
0
  2
$34
 10
62.613242796907251
 20
31.30771641035545
 30
0.0
  0
INSERT
  5
4752
  8
0
  2
$30
 10
56.678242796907249
 20
34.637716410355452
 30
0.0
  0
INSERT
  5
4753
  8
0
  2
$2
 10
57.388242796907249
 20
34.727716410355448
 30
0.0
  0
INSERT
  5
4754
  8
0
  2
$2
 10
58.093242796907248
 20
34.727716410355448
 30
0.0
  0
INSERT
  5
4755
  8
0
  2
$2
 10
59.513242796907257
 20
34.727716410355448
 30
0.0
  0
INSERT
  5
4756
  8
0
  2
$2
 10
60.213242796907252
 20
34.727716410355448
 30
0.0
  0
TEXT
  5
4757
  8
0
 62
     7
 10
40.154026890956509
 20
18.294949454602349
 30
0.0
 40
0.075
  1

  7
ROMAND
 72
     1
 11
40.154026890956509
 21
18.294949454602349
 31
0.0
  0
TEXT
  5
4758
  8
0
 62
     7
 10
43.369259490956502
 20
17.916327654602352
 30
0.0
 40
0.05
  1

  7
SIMPLEX
  0
TEXT
  5
4759
  8
0
 62
     7
 10
40.85251708455494
 20
13.117580780224859
 30
0.0
 40
0.0563063779772131
  1

  7
ROMAND
 72
     1
 11
40.85251708455494
 21
13.117580780224859
 31
0.0
  0
TEXT
  5
475A
  8
0
 62
     7
 10
43.266358445358392
 20
12.833329817808689
 30
0.0
 40
0.0375375853181421
  1

  7
SIMPLEX
  0
TEXT
  5
475B
  8
0
 62
     7
 10
57.249863113916277
 20
16.91133252414312
 30
0.0
 40
0.0563063779772131
  1

  7
ROMAND
 72
     1
 11
57.249863113916277
 21
16.91133252414312
 31
0.0
  0
TEXT
  5
475C
  8
0
 62
     7
 10
59.663704474719708
 20
16.62708156172695
 30
0.0
 40
0.0375375853181421
  1

  7
SIMPLEX
  0
TEXT
  5
475D
  8
0
 62
     7
 10
52.343810270843257
 20
18.841921120213701
 30
0.0
 40
0.0563063779772131
  1

  7
ROMAND
 72
     1
 11
52.343810270843257
 21
18.841921120213701
 31
0.0
  0
TEXT
  5
475E
  8
0
 62
     7
 10
54.757651631646702
 20
18.557670157797531
 30
0.0
 40
0.0375375853181421
  1

  7
SIMPLEX
  0
TEXT
  5
475F
  8
0
 62
     7
 10
71.800641525219163
 20
31.340246169027719
 30
0.0
 40
0.0563063779772131
  1

  7
ROMAND
 72
     1
 11
71.800641525219163
 21
31.340246169027719
 31
0.0
  0
TEXT
  5
4760
  8
0
 62
     7
 10
74.214482886022608
 20
31.055995206611549
 30
0.0
 40
0.0375375853181421
  1

  7
SIMPLEX
  0
TEXT
  5
4761
  8
0
 62
     7
 10
88.197987554580493
 20
35.133997912945972
 30
0.0
 40
0.0563063779772131
  1

  7
ROMAND
 72
     1
 11
88.197987554580493
 21
35.133997912945972
 31
0.0
  0
TEXT
  5
4762
  8
0
 62
     7
 10
90.611828915383924
 20
34.849746950529799
 30
0.0
 40
0.0375375853181421
  1

  7
SIMPLEX
  0
INSERT
  5
4763
  8
0
  2
$34
 10
55.534385087372257
 20
24.629228644712299
 30
0.0
 41
0.7507517063628413
 42
0.7507517063628413
 43
0.7507517063628413
  0
INSERT
  5
4764
  8
0
  2
$30
 10
54.764864588350342
 20
25.575175794729478
 30
0.0
 41
0.7507517063628413
 42
0.7507517063628413
 43
0.7507517063628413
  0
INSERT
  5
4765
  8
0
  2
$30
 10
54.79489465660486
 20
25.575175794729478
 30
0.0
 41
0.7507517063628413
 42
0.7507517063628413
 43
0.7507517063628413
  0
INSERT
  5
4766
  8
0
  2
$30
 10
54.824924724859372
 20
25.575175794729478
 30
0.0
 41
0.7507517063628413
 42
0.7507517063628413
 43
0.7507517063628413
  0
INSERT
  5
4767
  8
0
  2
$30
 10
54.85495479311389
 20
25.575175794729478
 30
0.0
 41
0.7507517063628413
 42
0.7507517063628413
 43
0.7507517063628413
  0
INSERT
  5
4768
  8
0
  2
$30
 10
54.884984861368402
 20
25.575175794729478
 30
0.0
 41
0.7507517063628413
 42
0.7507517063628413
 43
0.7507517063628413
  0
INSERT
  5
4769
  8
0
  2
$30
 10
55.658259118922118
 20
26.078179437992588
 30
0.0
 41
0.7507517063628413
 42
0.7507517063628413
 43
0.7507517063628413
  0
INSERT
  5
476A
  8
0
  2
$30
 10
55.658259118922118
 20
25.958059164974529
 30
0.0
 41
0.7507517063628413
 42
0.7507517063628413
 43
0.7507517063628413
  0
INSERT
  5
476B
  8
0
  2
$30
 10
55.658259118922118
 20
25.98808923322904
 30
0.0
 41
0.7507517063628413
 42
0.7507517063628413
 43
0.7507517063628413
  0
INSERT
  5
476C
  8
0
  2
$30
 10
55.658259118922118
 20
26.04814936973807
 30
0.0
 41
0.7507517063628413
 42
0.7507517063628413
 43
0.7507517063628413
  0
INSERT
  5
476D
  8
0
  2
$30
 10
55.658259118922118
 20
26.018119301483559
 30
0.0
 41
0.7507517063628413
 42
0.7507517063628413
 43
0.7507517063628413
  0
INSERT
  5
476E
  8
0
  2
$30
 10
58.856461388027832
 20
27.249352099918621
 30
0.0
 41
0.7507517063628413
 42
0.7507517063628413
 43
0.7507517063628413
  0
INSERT
  5
476F
  8
0
  2
$30
 10
58.856461388027832
 20
27.21932203166411
 30
0.0
 41
0.7507517063628413
 42
0.7507517063628413
 43
0.7507517063628413
  0
INSERT
  5
4770
  8
0
  2
$30
 10
58.856461388027832
 20
27.189291963409591
 30
0.0
 41
0.7507517063628413
 42
0.7507517063628413
 43
0.7507517063628413
  0
INSERT
  5
4771
  8
0
  2
$30
 10
58.856461388027832
 20
27.159261895155069
 30
0.0
 41
0.7507517063628413
 42
0.7507517063628413
 43
0.7507517063628413
  0
INSERT
  5
4772
  8
0
  2
$30
 10
58.856461388027832
 20
27.129231826900561
 30
0.0
 41
0.7507517063628413
 42
0.7507517063628413
 43
0.7507517063628413
  0
INSERT
  5
4773
  8
0
  2
$30
 10
55.658259118922118
 20
27.159261895155069
 30
0.0
 41
0.7507517063628413
 42
0.7507517063628413
 43
0.7507517063628413
  0
INSERT
  5
4774
  8
0
  2
$30
 10
55.658259118922118
 20
27.189291963409591
 30
0.0
 41
0.7507517063628413
 42
0.7507517063628413
 43
0.7507517063628413
  0
INSERT
  5
4775
  8
0
  2
$30
 10
55.658259118922118
 20
27.21932203166411
 30
0.0
 41
0.7507517063628413
 42
0.7507517063628413
 43
0.7507517063628413
  0
INSERT
  5
4776
  8
0
  2
$30
 10
55.658259118922118
 20
27.249352099918621
 30
0.0
 41
0.7507517063628413
 42
0.7507517063628413
 43
0.7507517063628413
  0
INSERT
  5
4777
  8
0
  2
$34
 10
60.113970496185587
 20
24.629228644712299
 30
0.0
 41
0.7507517063628413
 42
0.7507517063628413
 43
0.7507517063628413
  0
INSERT
  5
4778
  8
0
  2
$30
 10
55.658259118922118
 20
27.129231826900561
 30
0.0
 41
0.7507517063628413
 42
0.7507517063628413
 43
0.7507517063628413
  0
INSERT
  5
4779
  8
0
  2
$2
 10
56.191292830439743
 20
27.196799480473221
 30
0.0
 41
0.7507517063628413
 42
0.7507517063628413
 43
0.7507517063628413
  0
INSERT
  5
477A
  8
0
  2
$2
 10
56.720572783425538
 20
27.196799480473221
 30
0.0
 41
0.7507517063628413
 42
0.7507517063628413
 43
0.7507517063628413
  0
INSERT
  5
477B
  8
0
  2
$2
 10
57.786640206460781
 20
27.196799480473221
 30
0.0
 41
0.7507517063628413
 42
0.7507517063628413
 43
0.7507517063628413
  0
INSERT
  5
477C
  8
0
  2
$2
 10
58.312166400914769
 20
27.196799480473221
 30
0.0
 41
0.7507517063628413
 42
0.7507517063628413
 43
0.7507517063628413
  0
TEXT
  5
477D
  8
0
 62
     7
 10
53.651794741802519
 20
21.243853352899869
 30
0.0
 40
0.075
  1

  7
ROMAND
 72
     1
 11
53.651794741802519
 21
21.243853352899869
 31
0.0
  0
TEXT
  5
477E
  8
0
 62
     7
 10
56.867027341802519
 20
20.865231552899871
 30
0.0
 40
0.05
  1

  7
SIMPLEX
  0
TEXT
  5
477F
  8
0
 62
     7
 10
75.493031851740454
 20
26.297124243615261
 30
0.0
 40
0.075
  1

  7
ROMAND
 72
     1
 11
75.493031851740454
 21
26.297124243615261
 31
0.0
  0
TEXT
  5
4780
  8
0
 62
     7
 10
78.708264451740462
 20
25.91850244361526
 30
0.0
 40
0.05
  1

  7
SIMPLEX
  0
TEXT
  5
4781
  8
0
 62
     7
 10
68.958177782821565
 20
28.868664980330571
 30
0.0
 40
0.075
  1

  7
ROMAND
 72
     1
 11
68.958177782821565
 21
28.868664980330571
 31
0.0
  0
TEXT
  5
4782
  8
0
 62
     7
 10
72.173410382821572
 20
28.49004318033057
 30
0.0
 40
0.05
  1

  7
SIMPLEX
  0
TEXT
  5
4783
  8
0
 62
     7
 10
94.874644025220391
 20
45.516412754843813
 30
0.0
 40
0.075
  1

  7
ROMAND
 72
     1
 11
94.874644025220391
 21
45.516412754843813
 31
0.0
  0
TEXT
  5
4784
  8
0
 62
     7
 10
98.089876625220398
 20
45.137790954843787
 30
0.0
 40
0.05
  1

  7
SIMPLEX
  0
TEXT
  5
4785
  8
0
 62
     7
 10
116.7158811351583
 20
50.569683645559188
 30
0.0
 40
0.075
  1

  7
ROMAND
 72
     1
 11
116.7158811351583
 21
50.569683645559188
 31
0.0
  0
TEXT
  5
4786
  8
0
 62
     7
 10
119.93111373515831
 20
50.19106184555919
 30
0.0
 40
0.05
  1

  7
SIMPLEX
  0
INSERT
  5
4787
  8
0
  2
$34
 10
73.208018028921487
 20
36.577348790769442
 30
0.0
  0
INSERT
  5
4788
  8
0
  2
$30
 10
72.183018028921481
 20
37.837348790769447
 30
0.0
  0
INSERT
  5
4789
  8
0
  2
$30
 10
72.223018028921501
 20
37.837348790769447
 30
0.0
  0
INSERT
  5
478A
  8
0
  2
$30
 10
72.263018028921493
 20
37.837348790769447
 30
0.0
  0
INSERT
  5
478B
  8
0
  2
$30
 10
72.303018028921485
 20
37.837348790769447
 30
0.0
  0
INSERT
  5
478C
  8
0
  2
$30
 10
72.343018028921492
 20
37.837348790769447
 30
0.0
  0
INSERT
  5
478D
  8
0
  2
$30
 10
73.373018028921479
 20
38.507348790769448
 30
0.0
  0
INSERT
  5
478E
  8
0
  2
$30
 10
73.373018028921479
 20
38.347348790769452
 30
0.0
  0
INSERT
  5
478F
  8
0
  2
$30
 10
73.373018028921479
 20
38.387348790769451
 30
0.0
  0
INSERT
  5
4790
  8
0
  2
$30
 10
73.373018028921479
 20
38.467348790769442
 30
0.0
  0
INSERT
  5
4791
  8
0
  2
$30
 10
73.373018028921479
 20
38.42734879076945
 30
0.0
  0
INSERT
  5
4792
  8
0
  2
$30
 10
77.633018028921498
 20
40.067348790769437
 30
0.0
  0
INSERT
  5
4793
  8
0
  2
$30
 10
77.633018028921498
 20
40.027348790769437
 30
0.0
  0
INSERT
  5
4794
  8
0
  2
$30
 10
77.633018028921498
 20
39.987348790769452
 30
0.0
  0
INSERT
  5
4795
  8
0
  2
$30
 10
77.633018028921498
 20
39.947348790769453
 30
0.0
  0
INSERT
  5
4796
  8
0
  2
$30
 10
77.633018028921498
 20
39.90734879076944
 30
0.0
  0
INSERT
  5
4797
  8
0
  2
$30
 10
73.373018028921479
 20
39.947348790769453
 30
0.0
  0
INSERT
  5
4798
  8
0
  2
$30
 10
73.373018028921479
 20
39.987348790769452
 30
0.0
  0
INSERT
  5
4799
  8
0
  2
$30
 10
73.373018028921479
 20
40.027348790769437
 30
0.0
  0
INSERT
  5
479A
  8
0
  2
$30
 10
73.373018028921479
 20
40.067348790769437
 30
0.0
  0
INSERT
  5
479B
  8
0
  2
$34
 10
79.308018028921481
 20
36.577348790769442
 30
0.0
  0
INSERT
  5
479C
  8
0
  2
$30
 10
73.373018028921479
 20
39.90734879076944
 30
0.0
  0
INSERT
  5
479D
  8
0
  2
$2
 10
74.083018028921487
 20
39.99734879076945
 30
0.0
  0
INSERT
  5
479E
  8
0
  2
$2
 10
74.788018028921485
 20
39.99734879076945
 30
0.0
  0
INSERT
  5
479F
  8
0
  2
$2
 10
76.208018028921487
 20
39.99734879076945
 30
0.0
  0
INSERT
  5
47A0
  8
0
  2
$2
 10
76.908018028921489
 20
39.99734879076945
 30
0.0
  0
TEXT
  5
47A1
  8
0
 62
     7
 10
56.930139839399153
 20
24.255684680412511
 30
0.0
 40
0.075
  1

  7
ROMAND
 72
     1
 11
56.930139839399153
 21
24.255684680412511
 31
0.0
  0
TEXT
  5
47A2
  8
0
 62
     7
 10
60.145372439399146
 20
23.87706288041251
 30
0.0
 40
0.05
  1

  7
SIMPLEX
  0
TEXT
  5
47A3
  8
0
 62
     7
 10
82.846606081798001
 20
40.903432454925742
 30
0.0
 40
0.075
  1

  7
ROMAND
 72
     1
 11
82.846606081798001
 21
40.903432454925742
 31
0.0
  0
TEXT
  5
47A4
  8
0
 62
     7
 10
86.061838681797965
 20
40.524810654925737
 30
0.0
 40
0.05
  1

  7
SIMPLEX
  0
TEXT
  5
47A5
  8
0
 62
     7
 10
104.68784319173589
 20
45.956703345641138
 30
0.0
 40
0.075
  1

  7
ROMAND
 72
     1
 11
104.68784319173589
 21
45.956703345641138
 31
0.0
  0
TEXT
  5
47A6
  8
0
 62
     7
 10
107.9030757917359
 20
45.578081545641133
 30
0.0
 40
0.05
  1

  7
SIMPLEX
  0
INSERT
  5
47A7
  8
0
  2
$34
 10
61.179980085499068
 20
31.964368490851381
 30
0.0
  0
INSERT
  5
47A8
  8
0
  2
$30
 10
60.154980085499069
 20
33.224368490851383
 30
0.0
  0
INSERT
  5
47A9
  8
0
  2
$30
 10
60.194980085499068
 20
33.224368490851383
 30
0.0
  0
INSERT
  5
47AA
  8
0
  2
$30
 10
60.234980085499068
 20
33.224368490851383
 30
0.0
  0
INSERT
  5
47AB
  8
0
  2
$30
 10
60.274980085499067
 20
33.224368490851383
 30
0.0
  0
INSERT
  5
47AC
  8
0
  2
$30
 10
60.314980085499073
 20
33.224368490851383
 30
0.0
  0
INSERT
  5
47AD
  8
0
  2
$30
 10
61.344980085499067
 20
33.894368490851377
 30
0.0
  0
INSERT
  5
47AE
  8
0
  2
$30
 10
61.344980085499067
 20
33.734368490851388
 30
0.0
  0
INSERT
  5
47AF
  8
0
  2
$30
 10
61.344980085499067
 20
33.77436849085138
 30
0.0
  0
INSERT
  5
47B0
  8
0
  2
$30
 10
61.344980085499067
 20
33.854368490851378
 30
0.0
  0
INSERT
  5
47B1
  8
0
  2
$30
 10
61.344980085499067
 20
33.814368490851393
 30
0.0
  0
INSERT
  5
47B2
  8
0
  2
$30
 10
65.604980085499079
 20
35.454368490851387
 30
0.0
  0
INSERT
  5
47B3
  8
0
  2
$30
 10
65.604980085499079
 20
35.41436849085138
 30
0.0
  0
INSERT
  5
47B4
  8
0
  2
$30
 10
65.604980085499079
 20
35.374368490851388
 30
0.0
  0
INSERT
  5
47B5
  8
0
  2
$30
 10
65.604980085499079
 20
35.334368490851382
 30
0.0
  0
INSERT
  5
47B6
  8
0
  2
$30
 10
65.604980085499079
 20
35.29436849085139
 30
0.0
  0
INSERT
  5
47B7
  8
0
  2
$30
 10
61.344980085499067
 20
35.334368490851382
 30
0.0
  0
INSERT
  5
47B8
  8
0
  2
$30
 10
61.344980085499067
 20
35.374368490851388
 30
0.0
  0
INSERT
  5
47B9
  8
0
  2
$30
 10
61.344980085499067
 20
35.41436849085138
 30
0.0
  0
INSERT
  5
47BA
  8
0
  2
$30
 10
61.344980085499067
 20
35.454368490851387
 30
0.0
  0
INSERT
  5
47BB
  8
0
  2
$34
 10
67.279980085499062
 20
31.964368490851381
 30
0.0
  0
INSERT
  5
47BC
  8
0
  2
$30
 10
61.344980085499067
 20
35.29436849085139
 30
0.0
  0
INSERT
  5
47BD
  8
0
  2
$2
 10
62.054980085499068
 20
35.384368490851379
 30
0.0
  0
INSERT
  5
47BE
  8
0
  2
$2
 10
62.75998008549908
 20
35.384368490851379
 30
0.0
  0
INSERT
  5
47BF
  8
0
  2
$2
 10
64.179980085499068
 20
35.384368490851379
 30
0.0
  0
INSERT
  5
47C0
  8
0
  2
$2
 10
64.879980085499071
 20
35.384368490851379
 30
0.0
  0
TEXT
  5
47C1
  8
0
 62
     7
 10
73.202036625517195
 20
28.985505192628871
 30
0.0
 40
0.075
  1

  7
ROMAND
 72
     1
 11
73.202036625517195
 21
28.985505192628871
 31
0.0
  0
TEXT
  5
47C2
  8
0
 62
     7
 10
76.417269225517202
 20
28.60688339262887
 30
0.0
 40
0.05
  1

  7
SIMPLEX
  0
TEXT
  5
47C3
  8
0
 62
     7
 10
95.043273735455116
 20
34.038776083344253
 30
0.0
 40
0.075
  1

  7
ROMAND
 72
     1
 11
95.043273735455116
 21
34.038776083344253
 31
0.0
  0
TEXT
  5
47C4
  8
0
 62
     7
 10
98.258506335455124
 20
33.660154283344262
 30
0.0
 40
0.05
  1

  7
SIMPLEX
  0
TEXT
  5
47C5
  8
0
 62
     7
 10
88.508419666536227
 20
36.610316820059573
 30
0.0
 40
0.075
  1

  7
ROMAND
 72
     1
 11
88.508419666536227
 21
36.610316820059573
 31
0.0
  0
TEXT
  5
47C6
  8
0
 62
     7
 10
91.723652266536234
 20
36.231695020059568
 30
0.0
 40
0.05
  1

  7
SIMPLEX
  0
TEXT
  5
47C7
  8
0
 62
     7
 10
114.4248859089351
 20
53.258064594572808
 30
0.0
 40
0.075
  1

  7
ROMAND
 72
     1
 11
114.4248859089351
 21
53.258064594572808
 31
0.0
  0
TEXT
  5
47C8
  8
0
 62
     7
 10
117.640118508935
 20
52.879442794572803
 30
0.0
 40
0.05
  1

  7
SIMPLEX
  0
TEXT
  5
47C9
  8
0
 62
     7
 10
136.266123018873
 20
58.31133548528819
 30
0.0
 40
0.075
  1

  7
ROMAND
 72
     1
 11
136.266123018873
 21
58.31133548528819
 31
0.0
  0
TEXT
  5
47CA
  8
0
 62
     7
 10
139.48135561887301
 20
57.932713685288178
 30
0.0
 40
0.05
  1

  7
SIMPLEX
  0
INSERT
  5
47CB
  8
0
  2
$34
 10
92.758259912636163
 20
44.319000630498437
 30
0.0
  0
INSERT
  5
47CC
  8
0
  2
$30
 10
91.733259912636143
 20
45.579000630498449
 30
0.0
  0
INSERT
  5
47CD
  8
0
  2
$30
 10
91.773259912636135
 20
45.579000630498449
 30
0.0
  0
INSERT
  5
47CE
  8
0
  2
$30
 10
91.813259912636184
 20
45.579000630498449
 30
0.0
  0
INSERT
  5
47CF
  8
0
  2
$30
 10
91.853259912636148
 20
45.579000630498449
 30
0.0
  0
INSERT
  5
47D0
  8
0
  2
$30
 10
91.893259912636154
 20
45.579000630498449
 30
0.0
  0
INSERT
  5
47D1
  8
0
  2
$30
 10
92.923259912636155
 20
46.24900063049845
 30
0.0
  0
INSERT
  5
47D2
  8
0
  2
$30
 10
92.923259912636155
 20
46.089000630498433
 30
0.0
  0
INSERT
  5
47D3
  8
0
  2
$30
 10
92.923259912636155
 20
46.129000630498453
 30
0.0
  0
INSERT
  5
47D4
  8
0
  2
$30
 10
92.923259912636155
 20
46.209000630498437
 30
0.0
  0
INSERT
  5
47D5
  8
0
  2
$30
 10
92.923259912636155
 20
46.169000630498452
 30
0.0
  0
INSERT
  5
47D6
  8
0
  2
$30
 10
97.183259912636174
 20
47.809000630498439
 30
0.0
  0
INSERT
  5
47D7
  8
0
  2
$30
 10
97.183259912636174
 20
47.769000630498439
 30
0.0
  0
INSERT
  5
47D8
  8
0
  2
$30
 10
97.183259912636174
 20
47.72900063049844
 30
0.0
  0
INSERT
  5
47D9
  8
0
  2
$30
 10
97.183259912636174
 20
47.689000630498441
 30
0.0
  0
INSERT
  5
47DA
  8
0
  2
$30
 10
97.183259912636174
 20
47.649000630498442
 30
0.0
  0
INSERT
  5
47DB
  8
0
  2
$30
 10
92.923259912636155
 20
47.689000630498441
 30
0.0
  0
INSERT
  5
47DC
  8
0
  2
$30
 10
92.923259912636155
 20
47.72900063049844
 30
0.0
  0
INSERT
  5
47DD
  8
0
  2
$30
 10
92.923259912636155
 20
47.769000630498439
 30
0.0
  0
INSERT
  5
47DE
  8
0
  2
$30
 10
92.923259912636155
 20
47.809000630498439
 30
0.0
  0
INSERT
  5
47DF
  8
0
  2
$34
 10
98.858259912636143
 20
44.319000630498437
 30
0.0
  0
INSERT
  5
47E0
  8
0
  2
$30
 10
92.923259912636155
 20
47.649000630498442
 30
0.0
  0
INSERT
  5
47E1
  8
0
  2
$2
 10
93.633259912636163
 20
47.739000630498438
 30
0.0
  0
INSERT
  5
47E2
  8
0
  2
$2
 10
94.338259912636147
 20
47.739000630498438
 30
0.0
  0
INSERT
  5
47E3
  8
0
  2
$2
 10
95.758259912636163
 20
47.739000630498438
 30
0.0
  0
INSERT
  5
47E4
  8
0
  2
$2
 10
96.458259912636152
 20
47.739000630498438
 30
0.0
  0
TEXT
  5
47E5
  8
0
 62
     7
 10
63.472011900072822
 20
31.933531801256191
 30
0.0
 40
0.075
  1

  7
ROMAND
 72
     1
 11
63.472011900072822
 21
31.933531801256191
 31
0.0
  0
TEXT
  5
47E6
  8
0
 62
     7
 10
66.687244500072836
 20
31.554910001256189
 30
0.0
 40
0.05
  1

  7
SIMPLEX
  0
TEXT
  5
47E7
  8
0
 62
     7
 10
64.170502093671274
 20
26.7561631268787
 30
0.0
 40
0.0563063779772131
  1

  7
ROMAND
 72
     1
 11
64.170502093671274
 21
26.7561631268787
 31
0.0
  0
TEXT
  5
47E8
  8
0
 62
     7
 10
66.584343454474691
 20
26.471912164462541
 30
0.0
 40
0.0375375853181421
  1

  7
SIMPLEX
  0
TEXT
  5
47E9
  8
0
 62
     7
 10
80.56784812303259
 20
30.549914870796961
 30
0.0
 40
0.0563063779772131
  1

  7
ROMAND
 72
     1
 11
80.56784812303259
 21
30.549914870796961
 31
0.0
  0
TEXT
  5
47EA
  8
0
 62
     7
 10
82.981689483836035
 20
30.265663908380791
 30
0.0
 40
0.0375375853181421
  1

  7
SIMPLEX
  0
TEXT
  5
47EB
  8
0
 62
     7
 10
75.661795279959577
 20
32.480503466867539
 30
0.0
 40
0.0563063779772131
  1

  7
ROMAND
 72
     1
 11
75.661795279959577
 21
32.480503466867539
 31
0.0
  0
TEXT
  5
47EC
  8
0
 62
     7
 10
78.075636640763008
 20
32.196252504451373
 30
0.0
 40
0.0375375853181421
  1

  7
SIMPLEX
  0
TEXT
  5
47ED
  8
0
 62
     7
 10
95.118626534335476
 20
44.978828515681549
 30
0.0
 40
0.0563063779772131
  1

  7
ROMAND
 72
     1
 11
95.118626534335476
 21
44.978828515681549
 31
0.0
  0
TEXT
  5
47EE
  8
0
 62
     7
 10
97.532467895138936
 20
44.694577553265383
 30
0.0
 40
0.0375375853181421
  1

  7
SIMPLEX
  0
TEXT
  5
47EF
  8
0
 62
     7
 10
111.51597256369681
 20
48.77258025959982
 30
0.0
 40
0.0563063779772131
  1

  7
ROMAND
 72
     1
 11
111.51597256369681
 21
48.77258025959982
 31
0.0
  0
TEXT
  5
47F0
  8
0
 62
     7
 10
113.92981392450019
 20
48.488329297183633
 30
0.0
 40
0.0375375853181421
  1

  7
SIMPLEX
  0
INSERT
  5
47F1
  8
0
  2
$34
 10
78.852370096488571
 20
38.26781099136614
 30
0.0
 41
0.7507517063628413
 42
0.7507517063628413
 43
0.7507517063628413
  0
INSERT
  5
47F2
  8
0
  2
$30
 10
78.082849597466662
 20
39.213758141383323
 30
0.0
 41
0.7507517063628413
 42
0.7507517063628413
 43
0.7507517063628413
  0
INSERT
  5
47F3
  8
0
  2
$30
 10
78.112879665721181
 20
39.213758141383323
 30
0.0
 41
0.7507517063628413
 42
0.7507517063628413
 43
0.7507517063628413
  0
INSERT
  5
47F4
  8
0
  2
$30
 10
78.142909733975685
 20
39.213758141383323
 30
0.0
 41
0.7507517063628413
 42
0.7507517063628413
 43
0.7507517063628413
  0
INSERT
  5
47F5
  8
0
  2
$30
 10
78.172939802230189
 20
39.213758141383323
 30
0.0
 41
0.7507517063628413
 42
0.7507517063628413
 43
0.7507517063628413
  0
INSERT
  5
47F6
  8
0
  2
$30
 10
78.202969870484708
 20
39.213758141383323
 30
0.0
 41
0.7507517063628413
 42
0.7507517063628413
 43
0.7507517063628413
  0
INSERT
  5
47F7
  8
0
  2
$30
 10
78.976244128038445
 20
39.716761784646422
 30
0.0
 41
0.7507517063628413
 42
0.7507517063628413
 43
0.7507517063628413
  0
INSERT
  5
47F8
  8
0
  2
$30
 10
78.976244128038445
 20
39.59664151162837
 30
0.0
 41
0.7507517063628413
 42
0.7507517063628413
 43
0.7507517063628413
  0
INSERT
  5
47F9
  8
0
  2
$30
 10
78.976244128038445
 20
39.626671579882881
 30
0.0
 41
0.7507517063628413
 42
0.7507517063628413
 43
0.7507517063628413
  0
INSERT
  5
47FA
  8
0
  2
$30
 10
78.976244128038445
 20
39.686731716391911
 30
0.0
 41
0.7507517063628413
 42
0.7507517063628413
 43
0.7507517063628413
  0
INSERT
  5
47FB
  8
0
  2
$30
 10
78.976244128038445
 20
39.656701648137393
 30
0.0
 41
0.7507517063628413
 42
0.7507517063628413
 43
0.7507517063628413
  0
INSERT
  5
47FC
  8
0
  2
$30
 10
82.174446397144152
 20
40.887934446572451
 30
0.0
 41
0.7507517063628413
 42
0.7507517063628413
 43
0.7507517063628413
  0
INSERT
  5
47FD
  8
0
  2
$30
 10
82.174446397144152
 20
40.85790437831794
 30
0.0
 41
0.7507517063628413
 42
0.7507517063628413
 43
0.7507517063628413
  0
INSERT
  5
47FE
  8
0
  2
$30
 10
82.174446397144152
 20
40.827874310063429
 30
0.0
 41
0.7507517063628413
 42
0.7507517063628413
 43
0.7507517063628413
  0
INSERT
  5
47FF
  8
0
  2
$30
 10
82.174446397144152
 20
40.79784424180891
 30
0.0
 41
0.7507517063628413
 42
0.7507517063628413
 43
0.7507517063628413
  0
INSERT
  5
4800
  8
0
  2
$30
 10
82.174446397144152
 20
40.767814173554399
 30
0.0
 41
0.7507517063628413
 42
0.7507517063628413
 43
0.7507517063628413
  0
INSERT
  5
4801
  8
0
  2
$30
 10
78.976244128038445
 20
40.79784424180891
 30
0.0
 41
0.7507517063628413
 42
0.7507517063628413
 43
0.7507517063628413
  0
INSERT
  5
4802
  8
0
  2
$30
 10
78.976244128038445
 20
40.827874310063429
 30
0.0
 41
0.7507517063628413
 42
0.7507517063628413
 43
0.7507517063628413
  0
INSERT
  5
4803
  8
0
  2
$30
 10
78.976244128038445
 20
40.85790437831794
 30
0.0
 41
0.7507517063628413
 42
0.7507517063628413
 43
0.7507517063628413
  0
INSERT
  5
4804
  8
0
  2
$30
 10
78.976244128038445
 20
40.887934446572451
 30
0.0
 41
0.7507517063628413
 42
0.7507517063628413
 43
0.7507517063628413
  0
INSERT
  5
4805
  8
0
  2
$34
 10
83.431955505301914
 20
38.26781099136614
 30
0.0
 41
0.7507517063628413
 42
0.7507517063628413
 43
0.7507517063628413
  0
INSERT
  5
4806
  8
0
  2
$30
 10
78.976244128038445
 20
40.767814173554399
 30
0.0
 41
0.7507517063628413
 42
0.7507517063628413
 43
0.7507517063628413
  0
INSERT
  5
4807
  8
0
  2
$2
 10
79.509277839556063
 20
40.835381827127058
 30
0.0
 41
0.7507517063628413
 42
0.7507517063628413
 43
0.7507517063628413
  0
INSERT
  5
4808
  8
0
  2
$2
 10
80.038557792541866
 20
40.835381827127058
 30
0.0
 41
0.7507517063628413
 42
0.7507517063628413
 43
0.7507517063628413
  0
INSERT
  5
4809
  8
0
  2
$2
 10
81.104625215577101
 20
40.835381827127058
 30
0.0
 41
0.7507517063628413
 42
0.7507517063628413
 43
0.7507517063628413
  0
INSERT
  5
480A
  8
0
  2
$2
 10
81.63015141003109
 20
40.835381827127058
 30
0.0
 41
0.7507517063628413
 42
0.7507517063628413
 43
0.7507517063628413
  0
TEXT
  5
480B
  8
0
 62
     7
 10
76.969779750918832
 20
34.88243569955371
 30
0.0
 40
0.075
  1

  7
ROMAND
 72
     1
 11
76.969779750918832
 21
34.88243569955371
 31
0.0
  0
TEXT
  5
480C
  8
0
 62
     7
 10
80.185012350918839
 20
34.503813899553712
 30
0.0
 40
0.05
  1

  7
SIMPLEX
  0
TEXT
  5
480D
  8
0
 62
     7
 10
98.811016860856782
 20
39.935706590269099
 30
0.0
 40
0.075
  1

  7
ROMAND
 72
     1
 11
98.811016860856782
 21
39.935706590269099
 31
0.0
  0
TEXT
  5
480E
  8
0
 62
     7
 10
102.0262494608567
 20
39.557084790269101
 30
0.0
 40
0.05
  1

  7
SIMPLEX
  0
TEXT
  5
480F
  8
0
 62
     7
 10
92.276162791937864
 20
42.507247326984398
 30
0.0
 40
0.075
  1

  7
ROMAND
 72
     1
 11
92.276162791937864
 21
42.507247326984398
 31
0.0
  0
TEXT
  5
4810
  8
0
 62
     7
 10
95.491395391937886
 20
42.128625526984408
 30
0.0
 40
0.05
  1

  7
SIMPLEX
  0
TEXT
  5
4811
  8
0
 62
     7
 10
118.1926290343367
 20
59.15499510149764
 30
0.0
 40
0.075
  1

  7
ROMAND
 72
     1
 11
118.1926290343367
 21
59.15499510149764
 31
0.0
  0
TEXT
  5
4812
  8
0
 62
     7
 10
121.4078616343367
 20
58.776373301497628
 30
0.0
 40
0.05
  1

  7
SIMPLEX
  0
TEXT
  5
4813
  8
0
 62
     7
 10
140.03386614427461
 20
64.208265992213029
 30
0.0
 40
0.075
  1

  7
ROMAND
 72
     1
 11
140.03386614427461
 21
64.208265992213029
 31
0.0
  0
TEXT
  5
4814
  8
0
 62
     7
 10
143.24909874427459
 20
63.829644192213031
 30
0.0
 40
0.05
  1

  7
SIMPLEX
  0
INSERT
  5
4815
  8
0
  2
$34
 10
96.526003038037786
 20
50.215931137423269
 30
0.0
  0
INSERT
  5
4816
  8
0
  2
$30
 10
95.501003038037794
 20
51.475931137423281
 30
0.0
  0
INSERT
  5
4817
  8
0
  2
$30
 10
95.541003038037815
 20
51.475931137423281
 30
0.0
  0
INSERT
  5
4818
  8
0
  2
$30
 10
95.581003038037807
 20
51.475931137423281
 30
0.0
  0
INSERT
  5
4819
  8
0
  2
$30
 10
95.621003038037784
 20
51.475931137423281
 30
0.0
  0
INSERT
  5
481A
  8
0
  2
$30
 10
95.661003038037791
 20
51.475931137423281
 30
0.0
  0
INSERT
  5
481B
  8
0
  2
$30
 10
96.691003038037806
 20
52.145931137423283
 30
0.0
  0
INSERT
  5
481C
  8
0
  2
$30
 10
96.691003038037806
 20
51.985931137423293
 30
0.0
  0
INSERT
  5
481D
  8
0
  2
$30
 10
96.691003038037806
 20
52.025931137423271
 30
0.0
  0
INSERT
  5
481E
  8
0
  2
$30
 10
96.691003038037806
 20
52.105931137423269
 30
0.0
  0
INSERT
  5
481F
  8
0
  2
$30
 10
96.691003038037806
 20
52.065931137423291
 30
0.0
  0
INSERT
  5
4820
  8
0
  2
$30
 10
100.9510030380378
 20
53.705931137423278
 30
0.0
  0
INSERT
  5
4821
  8
0
  2
$30
 10
100.9510030380378
 20
53.665931137423279
 30
0.0
  0
INSERT
  5
4822
  8
0
  2
$30
 10
100.9510030380378
 20
53.625931137423279
 30
0.0
  0
INSERT
  5
4823
  8
0
  2
$30
 10
100.9510030380378
 20
53.58593113742328
 30
0.0
  0
INSERT
  5
4824
  8
0
  2
$30
 10
100.9510030380378
 20
53.545931137423267
 30
0.0
  0
INSERT
  5
4825
  8
0
  2
$30
 10
96.691003038037806
 20
53.58593113742328
 30
0.0
  0
INSERT
  5
4826
  8
0
  2
$30
 10
96.691003038037806
 20
53.625931137423279
 30
0.0
  0
INSERT
  5
4827
  8
0
  2
$30
 10
96.691003038037806
 20
53.665931137423279
 30
0.0
  0
INSERT
  5
4828
  8
0
  2
$30
 10
96.691003038037806
 20
53.705931137423278
 30
0.0
  0
INSERT
  5
4829
  8
0
  2
$34
 10
102.62600303803779
 20
50.215931137423269
 30
0.0
  0
INSERT
  5
482A
  8
0
  2
$30
 10
96.691003038037806
 20
53.545931137423267
 30
0.0
  0
INSERT
  5
482B
  8
0
  2
$2
 10
97.4010030380378
 20
53.635931137423277
 30
0.0
  0
INSERT
  5
482C
  8
0
  2
$2
 10
98.106003038037812
 20
53.635931137423277
 30
0.0
  0
INSERT
  5
482D
  8
0
  2
$2
 10
99.5260030380378
 20
53.635931137423277
 30
0.0
  0
INSERT
  5
482E
  8
0
  2
$2
 10
100.2260030380378
 20
53.635931137423277
 30
0.0
  0
INSERT
  5
482F
  8
0
  2
$2
 10
65.221577085760273
 20
32.657198643868533
 30
0.0
  0
INSERT
  5
4830
  8
0
  2
$2
 10
79.579194976930381
 20
37.855326567120727
 30
0.0
  0
INSERT
  5
4831
  8
TITLE
  2
$34
 10
80.810446860804603
 20
38.368129554957783
 30
0.0
  0
INSERT
  5
4832
  8
TITLE
  2
$2
 10
75.763341279788591
 20
36.006536839480582
 30
0.0
  0
TEXT
  5
4833
  8
0
 62
     7
 10
5.8221542663840058
 20
13.01281706526483
 30
0.0
 40
0.075
  1

  7
ROMAND
 72
     1
 11
5.8221542663840058
 21
13.01281706526483
 31
0.0
  0
TEXT
  5
4834
  8
0
 62
     7
 10
9.0373868663840078
 20
12.634195265264831
 30
0.0
 40
0.05
  1

  7
SIMPLEX
  0
TEXT
  5
4835
  8
0
 62
     7
 10
6.5206444599824458
 20
7.835448390887346
 30
0.0
 40
0.0563063779772131
  1

  7
ROMAND
 72
     1
 11
6.5206444599824458
 21
7.835448390887346
 31
0.0
  0
TEXT
  5
4836
  8
0
 62
     7
 10
8.9344858207858842
 20
7.551197428471176
 30
0.0
 40
0.0375375853181421
  1

  7
SIMPLEX
  0
TEXT
  5
4837
  8
0
 62
     7
 10
22.917990489343769
 20
11.6292001348056
 30
0.0
 40
0.0563063779772131
  1

  7
ROMAND
 72
     1
 11
22.917990489343769
 21
11.6292001348056
 31
0.0
  0
TEXT
  5
4838
  8
0
 62
     7
 10
25.331831850147211
 20
11.34494917238943
 30
0.0
 40
0.0375375853181421
  1

  7
SIMPLEX
  0
TEXT
  5
4839
  8
0
 62
     7
 10
18.011937646270749
 20
13.55978873087618
 30
0.0
 40
0.0563063779772131
  1

  7
ROMAND
 72
     1
 11
18.011937646270749
 21
13.55978873087618
 31
0.0
  0
TEXT
  5
483A
  8
0
 62
     7
 10
20.42577900707419
 20
13.27553776846001
 30
0.0
 40
0.0375375853181421
  1

  7
SIMPLEX
  0
TEXT
  5
483B
  8
0
 62
     7
 10
37.468768900646673
 20
26.058113779690199
 30
0.0
 40
0.0563063779772131
  1

  7
ROMAND
 72
     1
 11
37.468768900646673
 21
26.058113779690199
 31
0.0
  0
TEXT
  5
483C
  8
0
 62
     7
 10
39.882610261450097
 20
25.773862817274029
 30
0.0
 40
0.0375375853181421
  1

  7
SIMPLEX
  0
TEXT
  5
483D
  8
0
 62
     7
 10
53.866114930007988
 20
29.851865523608449
 30
0.0
 40
0.0563063779772131
  1

  7
ROMAND
 72
     1
 11
53.866114930007988
 21
29.851865523608449
 31
0.0
  0
TEXT
  5
483E
  8
0
 62
     7
 10
56.279956290811441
 20
29.567614561192279
 30
0.0
 40
0.0375375853181421
  1

  7
SIMPLEX
  0
INSERT
  5
483F
  8
0
  2
$34
 10
21.202512462799749
 20
19.34709625537478
 30
0.0
 41
0.7507517063628422
 42
0.7507517063628422
 43
0.7507517063628422
  0
INSERT
  5
4840
  8
0
  2
$30
 10
20.432991963777841
 20
20.293043405391959
 30
0.0
 41
0.7507517063628422
 42
0.7507517063628422
 43
0.7507517063628422
  0
INSERT
  5
4841
  8
0
  2
$30
 10
20.463022032032359
 20
20.293043405391959
 30
0.0
 41
0.7507517063628422
 42
0.7507517063628422
 43
0.7507517063628422
  0
INSERT
  5
4842
  8
0
  2
$30
 10
20.493052100286871
 20
20.293043405391959
 30
0.0
 41
0.7507517063628422
 42
0.7507517063628422
 43
0.7507517063628422
  0
INSERT
  5
4843
  8
0
  2
$30
 10
20.523082168541379
 20
20.293043405391959
 30
0.0
 41
0.7507517063628422
 42
0.7507517063628422
 43
0.7507517063628422
  0
INSERT
  5
4844
  8
0
  2
$30
 10
20.553112236795901
 20
20.293043405391959
 30
0.0
 41
0.7507517063628422
 42
0.7507517063628422
 43
0.7507517063628422
  0
INSERT
  5
4845
  8
0
  2
$30
 10
21.32638649434962
 20
20.796047048655069
 30
0.0
 41
0.7507517063628422
 42
0.7507517063628422
 43
0.7507517063628422
  0
INSERT
  5
4846
  8
0
  2
$30
 10
21.32638649434962
 20
20.675926775637009
 30
0.0
 41
0.7507517063628422
 42
0.7507517063628422
 43
0.7507517063628422
  0
INSERT
  5
4847
  8
0
  2
$30
 10
21.32638649434962
 20
20.705956843891521
 30
0.0
 41
0.7507517063628422
 42
0.7507517063628422
 43
0.7507517063628422
  0
INSERT
  5
4848
  8
0
  2
$30
 10
21.32638649434962
 20
20.766016980400551
 30
0.0
 41
0.7507517063628422
 42
0.7507517063628422
 43
0.7507517063628422
  0
INSERT
  5
4849
  8
0
  2
$30
 10
21.32638649434962
 20
20.735986912146039
 30
0.0
 41
0.7507517063628422
 42
0.7507517063628422
 43
0.7507517063628422
  0
INSERT
  5
484A
  8
0
  2
$30
 10
24.524588763455331
 20
21.967219710581102
 30
0.0
 41
0.7507517063628422
 42
0.7507517063628422
 43
0.7507517063628422
  0
INSERT
  5
484B
  8
0
  2
$30
 10
24.524588763455331
 20
21.93718964232658
 30
0.0
 41
0.7507517063628422
 42
0.7507517063628422
 43
0.7507517063628422
  0
INSERT
  5
484C
  8
0
  2
$30
 10
24.524588763455331
 20
21.907159574072072
 30
0.0
 41
0.7507517063628422
 42
0.7507517063628422
 43
0.7507517063628422
  0
INSERT
  5
484D
  8
0
  2
$30
 10
24.524588763455331
 20
21.87712950581755
 30
0.0
 41
0.7507517063628422
 42
0.7507517063628422
 43
0.7507517063628422
  0
INSERT
  5
484E
  8
0
  2
$30
 10
24.524588763455331
 20
21.847099437563038
 30
0.0
 41
0.7507517063628422
 42
0.7507517063628422
 43
0.7507517063628422
  0
INSERT
  5
484F
  8
0
  2
$30
 10
21.32638649434962
 20
21.87712950581755
 30
0.0
 41
0.7507517063628422
 42
0.7507517063628422
 43
0.7507517063628422
  0
INSERT
  5
4850
  8
0
  2
$30
 10
21.32638649434962
 20
21.907159574072072
 30
0.0
 41
0.7507517063628422
 42
0.7507517063628422
 43
0.7507517063628422
  0
INSERT
  5
4851
  8
0
  2
$30
 10
21.32638649434962
 20
21.93718964232658
 30
0.0
 41
0.7507517063628422
 42
0.7507517063628422
 43
0.7507517063628422
  0
INSERT
  5
4852
  8
0
  2
$30
 10
21.32638649434962
 20
21.967219710581102
 30
0.0
 41
0.7507517063628422
 42
0.7507517063628422
 43
0.7507517063628422
  0
INSERT
  5
4853
  8
0
  2
$34
 10
25.78209787161309
 20
19.34709625537478
 30
0.0
 41
0.7507517063628422
 42
0.7507517063628422
 43
0.7507517063628422
  0
INSERT
  5
4854
  8
0
  2
$30
 10
21.32638649434962
 20
21.847099437563038
 30
0.0
 41
0.7507517063628422
 42
0.7507517063628422
 43
0.7507517063628422
  0
INSERT
  5
4855
  8
0
  2
$2
 10
21.859420205867242
 20
21.914667091135701
 30
0.0
 41
0.7507517063628422
 42
0.7507517063628422
 43
0.7507517063628422
  0
INSERT
  5
4856
  8
0
  2
$2
 10
22.388700158853041
 20
21.914667091135701
 30
0.0
 41
0.7507517063628422
 42
0.7507517063628422
 43
0.7507517063628422
  0
INSERT
  5
4857
  8
0
  2
$2
 10
23.45476758188828
 20
21.914667091135701
 30
0.0
 41
0.7507517063628422
 42
0.7507517063628422
 43
0.7507517063628422
  0
INSERT
  5
4858
  8
0
  2
$2
 10
23.980293776342268
 20
21.914667091135701
 30
0.0
 41
0.7507517063628422
 42
0.7507517063628422
 43
0.7507517063628422
  0
TEXT
  5
4859
  8
0
 62
     7
 10
19.319922117230021
 20
15.96172096356235
 30
0.0
 40
0.075
  1

  7
ROMAND
 72
     1
 11
19.319922117230021
 21
15.96172096356235
 31
0.0
  0
TEXT
  5
485A
  8
0
 62
     7
 10
22.535154717230022
 20
15.58309916356235
 30
0.0
 40
0.05
  1

  7
SIMPLEX
  0
TEXT
  5
485B
  8
0
 62
     7
 10
41.161159227167957
 20
21.014991854277739
 30
0.0
 40
0.075
  1

  7
ROMAND
 72
     1
 11
41.161159227167957
 21
21.014991854277739
 31
0.0
  0
TEXT
  5
485C
  8
0
 62
     7
 10
44.37639182716795
 20
20.636370054277741
 30
0.0
 40
0.05
  1

  7
SIMPLEX
  0
TEXT
  5
485D
  8
0
 62
     7
 10
34.626305158249068
 20
23.586532590993048
 30
0.0
 40
0.075
  1

  7
ROMAND
 72
     1
 11
34.626305158249068
 21
23.586532590993048
 31
0.0
  0
TEXT
  5
485E
  8
0
 62
     7
 10
37.841537758249061
 20
23.207910790993051
 30
0.0
 40
0.05
  1

  7
SIMPLEX
  0
TEXT
  5
485F
  8
0
 62
     7
 10
60.542771400647901
 20
40.234280365506287
 30
0.0
 40
0.075
  1

  7
ROMAND
 72
     1
 11
60.542771400647901
 21
40.234280365506287
 31
0.0
  0
TEXT
  5
4860
  8
0
 62
     7
 10
63.758004000647901
 20
39.855658565506282
 30
0.0
 40
0.05
  1

  7
SIMPLEX
  0
TEXT
  5
4861
  8
0
 62
     7
 10
82.384008510585829
 20
45.287551256221668
 30
0.0
 40
0.075
  1

  7
ROMAND
 72
     1
 11
82.384008510585829
 21
45.287551256221668
 31
0.0
  0
TEXT
  5
4862
  8
0
 62
     7
 10
85.599241110585851
 20
44.908929456221671
 30
0.0
 40
0.05
  1

  7
SIMPLEX
  0
INSERT
  5
4863
  8
0
  2
$34
 10
38.876145404348989
 20
31.295216401431919
 30
0.0
  0
INSERT
  5
4864
  8
0
  2
$30
 10
37.851145404348991
 20
32.555216401431927
 30
0.0
  0
INSERT
  5
4865
  8
0
  2
$30
 10
37.89114540434899
 20
32.555216401431927
 30
0.0
  0
INSERT
  5
4866
  8
0
  2
$30
 10
37.931145404348982
 20
32.555216401431927
 30
0.0
  0
INSERT
  5
4867
  8
0
  2
$30
 10
37.971145404348988
 20
32.555216401431927
 30
0.0
  0
INSERT
  5
4868
  8
0
  2
$30
 10
38.011145404348987
 20
32.555216401431927
 30
0.0
  0
INSERT
  5
4869
  8
0
  2
$30
 10
39.041145404348981
 20
33.225216401431929
 30
0.0
  0
INSERT
  5
486A
  8
0
  2
$30
 10
39.041145404348981
 20
33.065216401431933
 30
0.0
  0
INSERT
  5
486B
  8
0
  2
$30
 10
39.041145404348981
 20
33.105216401431932
 30
0.0
  0
INSERT
  5
486C
  8
0
  2
$30
 10
39.041145404348981
 20
33.185216401431923
 30
0.0
  0
INSERT
  5
486D
  8
0
  2
$30
 10
39.041145404348981
 20
33.145216401431931
 30
0.0
  0
INSERT
  5
486E
  8
0
  2
$30
 10
43.301145404348979
 20
34.785216401431917
 30
0.0
  0
INSERT
  5
486F
  8
0
  2
$30
 10
43.301145404348979
 20
34.745216401431932
 30
0.0
  0
INSERT
  5
4870
  8
0
  2
$30
 10
43.301145404348979
 20
34.705216401431933
 30
0.0
  0
INSERT
  5
4871
  8
0
  2
$30
 10
43.301145404348979
 20
34.665216401431927
 30
0.0
  0
INSERT
  5
4872
  8
0
  2
$30
 10
43.301145404348979
 20
34.625216401431921
 30
0.0
  0
INSERT
  5
4873
  8
0
  2
$30
 10
39.041145404348981
 20
34.665216401431927
 30
0.0
  0
INSERT
  5
4874
  8
0
  2
$30
 10
39.041145404348981
 20
34.705216401431933
 30
0.0
  0
INSERT
  5
4875
  8
0
  2
$30
 10
39.041145404348981
 20
34.745216401431932
 30
0.0
  0
INSERT
  5
4876
  8
0
  2
$30
 10
39.041145404348981
 20
34.785216401431917
 30
0.0
  0
INSERT
  5
4877
  8
0
  2
$34
 10
44.976145404348983
 20
31.295216401431919
 30
0.0
  0
INSERT
  5
4878
  8
0
  2
$30
 10
39.041145404348981
 20
34.625216401431921
 30
0.0
  0
INSERT
  5
4879
  8
0
  2
$2
 10
39.751145404348989
 20
34.715216401431931
 30
0.0
  0
INSERT
  5
487A
  8
0
  2
$2
 10
40.456145404348987
 20
34.715216401431931
 30
0.0
  0
INSERT
  5
487B
  8
0
  2
$2
 10
41.876145404348989
 20
34.715216401431931
 30
0.0
  0
INSERT
  5
487C
  8
0
  2
$2
 10
42.576145404348978
 20
34.715216401431931
 30
0.0
  0
TEXT
  5
487D
  8
0
 62
     7
 10
22.598267214826649
 20
18.973552291074991
 30
0.0
 40
0.075
  1

  7
ROMAND
 72
     1
 11
22.598267214826649
 21
18.973552291074991
 31
0.0
  0
TEXT
  5
487E
  8
0
 62
     7
 10
25.813499814826649
 20
18.59493049107499
 30
0.0
 40
0.05
  1

  7
SIMPLEX
  0
TEXT
  5
487F
  8
0
 62
     7
 10
48.514733457225489
 20
35.62130006558823
 30
0.0
 40
0.075
  1

  7
ROMAND
 72
     1
 11
48.514733457225489
 21
35.62130006558823
 31
0.0
  0
TEXT
  5
4880
  8
0
 62
     7
 10
51.729966057225482
 20
35.242678265588232
 30
0.0
 40
0.05
  1

  7
SIMPLEX
  0
TEXT
  5
4881
  8
0
 62
     7
 10
70.355970567163425
 20
40.674570956303619
 30
0.0
 40
0.075
  1

  7
ROMAND
 72
     1
 11
70.355970567163425
 21
40.674570956303619
 31
0.0
  0
TEXT
  5
4882
  8
0
 62
     7
 10
73.571203167163432
 20
40.295949156303607
 30
0.0
 40
0.05
  1

  7
SIMPLEX
  0
INSERT
  5
4883
  8
0
  2
$34
 10
26.84810746092657
 20
26.682236101513858
 30
0.0
  0
INSERT
  5
4884
  8
0
  2
$30
 10
25.823107460926568
 20
27.94223610151386
 30
0.0
  0
INSERT
  5
4885
  8
0
  2
$30
 10
25.863107460926571
 20
27.94223610151386
 30
0.0
  0
INSERT
  5
4886
  8
0
  2
$30
 10
25.90310746092657
 20
27.94223610151386
 30
0.0
  0
INSERT
  5
4887
  8
0
  2
$30
 10
25.943107460926569
 20
27.94223610151386
 30
0.0
  0
INSERT
  5
4888
  8
0
  2
$30
 10
25.983107460926568
 20
27.94223610151386
 30
0.0
  0
INSERT
  5
4889
  8
0
  2
$30
 10
27.01310746092657
 20
28.612236101513869
 30
0.0
  0
INSERT
  5
488A
  8
0
  2
$30
 10
27.01310746092657
 20
28.452236101513869
 30
0.0
  0
INSERT
  5
488B
  8
0
  2
$30
 10
27.01310746092657
 20
28.492236101513861
 30
0.0
  0
INSERT
  5
488C
  8
0
  2
$30
 10
27.01310746092657
 20
28.572236101513859
 30
0.0
  0
INSERT
  5
488D
  8
0
  2
$30
 10
27.01310746092657
 20
28.53223610151387
 30
0.0
  0
INSERT
  5
488E
  8
0
  2
$30
 10
31.273107460926571
 20
30.172236101513871
 30
0.0
  0
INSERT
  5
488F
  8
0
  2
$30
 10
31.273107460926571
 20
30.132236101513861
 30
0.0
  0
INSERT
  5
4890
  8
0
  2
$30
 10
31.273107460926571
 20
30.092236101513869
 30
0.0
  0
INSERT
  5
4891
  8
0
  2
$30
 10
31.273107460926571
 20
30.052236101513859
 30
0.0
  0
INSERT
  5
4892
  8
0
  2
$30
 10
31.273107460926571
 20
30.012236101513871
 30
0.0
  0
INSERT
  5
4893
  8
0
  2
$30
 10
27.01310746092657
 20
30.052236101513859
 30
0.0
  0
INSERT
  5
4894
  8
0
  2
$30
 10
27.01310746092657
 20
30.092236101513869
 30
0.0
  0
INSERT
  5
4895
  8
0
  2
$30
 10
27.01310746092657
 20
30.132236101513861
 30
0.0
  0
INSERT
  5
4896
  8
0
  2
$30
 10
27.01310746092657
 20
30.172236101513871
 30
0.0
  0
INSERT
  5
4897
  8
0
  2
$34
 10
32.948107460926572
 20
26.682236101513858
 30
0.0
  0
INSERT
  5
4898
  8
0
  2
$30
 10
27.01310746092657
 20
30.012236101513871
 30
0.0
  0
INSERT
  5
4899
  8
0
  2
$2
 10
27.72310746092657
 20
30.10223610151386
 30
0.0
  0
INSERT
  5
489A
  8
0
  2
$2
 10
28.428107460926569
 20
30.10223610151386
 30
0.0
  0
INSERT
  5
489B
  8
0
  2
$2
 10
29.84810746092657
 20
30.10223610151386
 30
0.0
  0
INSERT
  5
489C
  8
0
  2
$2
 10
30.548107460926559
 20
30.10223610151386
 30
0.0
  0
TEXT
  5
489D
  8
0
 62
     7
 10
38.870164000944698
 20
23.703372803291352
 30
0.0
 40
0.075
  1

  7
ROMAND
 72
     1
 11
38.870164000944698
 21
23.703372803291352
 31
0.0
  0
TEXT
  5
489E
  8
0
 62
     7
 10
42.085396600944676
 20
23.32475100329135
 30
0.0
 40
0.05
  1

  7
SIMPLEX
  0
TEXT
  5
489F
  8
0
 62
     7
 10
60.711401110882619
 20
28.75664369400674
 30
0.0
 40
0.075
  1

  7
ROMAND
 72
     1
 11
60.711401110882619
 21
28.75664369400674
 31
0.0
  0
TEXT
  5
48A0
  8
0
 62
     7
 10
63.926633710882641
 20
28.378021894006739
 30
0.0
 40
0.05
  1

  7
SIMPLEX
  0
TEXT
  5
48A1
  8
0
 62
     7
 10
54.17654704196373
 20
31.32818443072205
 30
0.0
 40
0.075
  1

  7
ROMAND
 72
     1
 11
54.17654704196373
 21
31.32818443072205
 31
0.0
  0
TEXT
  5
48A2
  8
0
 62
     7
 10
57.391779641963737
 20
30.949562630722049
 30
0.0
 40
0.05
  1

  7
SIMPLEX
  0
TEXT
  5
48A3
  8
0
 62
     7
 10
80.093013284362584
 20
47.975932205235289
 30
0.0
 40
0.075
  1

  7
ROMAND
 72
     1
 11
80.093013284362584
 21
47.975932205235289
 31
0.0
  0
TEXT
  5
48A4
  8
0
 62
     7
 10
83.308245884362549
 20
47.597310405235277
 30
0.0
 40
0.05
  1

  7
SIMPLEX
  0
TEXT
  5
48A5
  8
0
 62
     7
 10
101.93425039430051
 20
53.02920309595067
 30
0.0
 40
0.075
  1

  7
ROMAND
 72
     1
 11
101.93425039430051
 21
53.02920309595067
 31
0.0
  0
TEXT
  5
48A6
  8
0
 62
     7
 10
105.1494829943005
 20
52.650581295950659
 30
0.0
 40
0.05
  1

  7
SIMPLEX
  0
INSERT
  5
48A7
  8
0
  2
$34
 10
58.426387288063658
 20
39.036868241160931
 30
0.0
  0
INSERT
  5
48A8
  8
0
  2
$30
 10
57.40138728806366
 20
40.296868241160922
 30
0.0
  0
INSERT
  5
48A9
  8
0
  2
$30
 10
57.441387288063652
 20
40.296868241160922
 30
0.0
  0
INSERT
  5
48AA
  8
0
  2
$30
 10
57.481387288063672
 20
40.296868241160922
 30
0.0
  0
INSERT
  5
48AB
  8
0
  2
$30
 10
57.52138728806365
 20
40.296868241160922
 30
0.0
  0
INSERT
  5
48AC
  8
0
  2
$30
 10
57.561387288063663
 20
40.296868241160922
 30
0.0
  0
INSERT
  5
48AD
  8
0
  2
$30
 10
58.591387288063657
 20
40.966868241160917
 30
0.0
  0
INSERT
  5
48AE
  8
0
  2
$30
 10
58.591387288063657
 20
40.806868241160913
 30
0.0
  0
INSERT
  5
48AF
  8
0
  2
$30
 10
58.591387288063657
 20
40.846868241160927
 30
0.0
  0
INSERT
  5
48B0
  8
0
  2
$30
 10
58.591387288063657
 20
40.926868241160918
 30
0.0
  0
INSERT
  5
48B1
  8
0
  2
$30
 10
58.591387288063657
 20
40.886868241160919
 30
0.0
  0
INSERT
  5
48B2
  8
0
  2
$30
 10
62.851387288063663
 20
42.526868241160919
 30
0.0
  0
INSERT
  5
48B3
  8
0
  2
$30
 10
62.851387288063663
 20
42.48686824116092
 30
0.0
  0
INSERT
  5
48B4
  8
0
  2
$30
 10
62.851387288063663
 20
42.446868241160921
 30
0.0
  0
INSERT
  5
48B5
  8
0
  2
$30
 10
62.851387288063663
 20
42.406868241160907
 30
0.0
  0
INSERT
  5
48B6
  8
0
  2
$30
 10
62.851387288063663
 20
42.366868241160923
 30
0.0
  0
INSERT
  5
48B7
  8
0
  2
$30
 10
58.591387288063657
 20
42.406868241160907
 30
0.0
  0
INSERT
  5
48B8
  8
0
  2
$30
 10
58.591387288063657
 20
42.446868241160921
 30
0.0
  0
INSERT
  5
48B9
  8
0
  2
$30
 10
58.591387288063657
 20
42.48686824116092
 30
0.0
  0
INSERT
  5
48BA
  8
0
  2
$30
 10
58.591387288063657
 20
42.526868241160919
 30
0.0
  0
INSERT
  5
48BB
  8
0
  2
$34
 10
64.52638728806366
 20
39.036868241160931
 30
0.0
  0
INSERT
  5
48BC
  8
0
  2
$30
 10
58.591387288063657
 20
42.366868241160923
 30
0.0
  0
INSERT
  5
48BD
  8
0
  2
$2
 10
59.301387288063651
 20
42.456868241160919
 30
0.0
  0
INSERT
  5
48BE
  8
0
  2
$2
 10
60.00638728806365
 20
42.456868241160919
 30
0.0
  0
INSERT
  5
48BF
  8
0
  2
$2
 10
61.426387288063658
 20
42.456868241160919
 30
0.0
  0
INSERT
  5
48C0
  8
0
  2
$2
 10
62.126387288063661
 20
42.456868241160919
 30
0.0
  0
TEXT
  5
48C1
  8
0
 62
     7
 10
29.140139275500321
 20
26.651399411918671
 30
0.0
 40
0.075
  1

  7
ROMAND
 72
     1
 11
29.140139275500321
 21
26.651399411918671
 31
0.0
  0
TEXT
  5
48C2
  8
0
 62
     7
 10
32.355371875500332
 20
26.27277761191867
 30
0.0
 40
0.05
  1

  7
SIMPLEX
  0
TEXT
  5
48C3
  8
0
 62
     7
 10
29.838629469098759
 20
21.474030737541181
 30
0.0
 40
0.0563063779772131
  1

  7
ROMAND
 72
     1
 11
29.838629469098759
 21
21.474030737541181
 31
0.0
  0
TEXT
  5
48C4
  8
0
 62
     7
 10
32.252470829902201
 20
21.189779775125022
 30
0.0
 40
0.0375375853181421
  1

  7
SIMPLEX
  0
TEXT
  5
48C5
  8
0
 62
     7
 10
46.235975498460078
 20
25.267782481459442
 30
0.0
 40
0.0563063779772131
  1

  7
ROMAND
 72
     1
 11
46.235975498460078
 21
25.267782481459442
 31
0.0
  0
TEXT
  5
48C6
  8
0
 62
     7
 10
48.649816859263517
 20
24.983531519043272
 30
0.0
 40
0.0375375853181421
  1

  7
SIMPLEX
  0
TEXT
  5
48C7
  8
0
 62
     7
 10
41.329922655387072
 20
27.19837107753002
 30
0.0
 40
0.0563063779772131
  1

  7
ROMAND
 72
     1
 11
41.329922655387072
 21
27.19837107753002
 31
0.0
  0
TEXT
  5
48C8
  8
0
 62
     7
 10
43.743764016190511
 20
26.91412011511385
 30
0.0
 40
0.0375375853181421
  1

  7
SIMPLEX
  0
TEXT
  5
48C9
  8
0
 62
     7
 10
60.786753909762979
 20
39.69669612634403
 30
0.0
 40
0.0563063779772131
  1

  7
ROMAND
 72
     1
 11
60.786753909762979
 21
39.69669612634403
 31
0.0
  0
TEXT
  5
48CA
  8
0
 62
     7
 10
63.20059527056641
 20
39.41244516392787
 30
0.0
 40
0.0375375853181421
  1

  7
SIMPLEX
  0
TEXT
  5
48CB
  8
0
 62
     7
 10
77.184099939124295
 20
43.490447870262287
 30
0.0
 40
0.0563063779772131
  1

  7
ROMAND
 72
     1
 11
77.184099939124295
 21
43.490447870262287
 31
0.0
  0
TEXT
  5
48CC
  8
0
 62
     7
 10
79.597941299927754
 20
43.206196907846113
 30
0.0
 40
0.0375375853181421
  1

  7
SIMPLEX
  0
INSERT
  5
48CD
  8
0
  2
$34
 10
44.520497471916059
 20
32.985678602028621
 30
0.0
 41
0.7507517063628413
 42
0.7507517063628413
 43
0.7507517063628413
  0
INSERT
  5
48CE
  8
0
  2
$30
 10
43.750976972894136
 20
33.931625752045797
 30
0.0
 41
0.7507517063628413
 42
0.7507517063628413
 43
0.7507517063628413
  0
INSERT
  5
48CF
  8
0
  2
$30
 10
43.781007041148662
 20
33.931625752045797
 30
0.0
 41
0.7507517063628413
 42
0.7507517063628413
 43
0.7507517063628413
  0
INSERT
  5
48D0
  8
0
  2
$30
 10
43.811037109403181
 20
33.931625752045797
 30
0.0
 41
0.7507517063628413
 42
0.7507517063628413
 43
0.7507517063628413
  0
INSERT
  5
48D1
  8
0
  2
$30
 10
43.841067177657692
 20
33.931625752045797
 30
0.0
 41
0.7507517063628413
 42
0.7507517063628413
 43
0.7507517063628413
  0
INSERT
  5
48D2
  8
0
  2
$30
 10
43.87109724591221
 20
33.931625752045797
 30
0.0
 41
0.7507517063628413
 42
0.7507517063628413
 43
0.7507517063628413
  0
INSERT
  5
48D3
  8
0
  2
$30
 10
44.644371503465933
 20
34.43462939530891
 30
0.0
 41
0.7507517063628413
 42
0.7507517063628413
 43
0.7507517063628413
  0
INSERT
  5
48D4
  8
0
  2
$30
 10
44.644371503465933
 20
34.31450912229085
 30
0.0
 41
0.7507517063628413
 42
0.7507517063628413
 43
0.7507517063628413
  0
INSERT
  5
48D5
  8
0
  2
$30
 10
44.644371503465933
 20
34.344539190545362
 30
0.0
 41
0.7507517063628413
 42
0.7507517063628413
 43
0.7507517063628413
  0
INSERT
  5
48D6
  8
0
  2
$30
 10
44.644371503465933
 20
34.404599327054392
 30
0.0
 41
0.7507517063628413
 42
0.7507517063628413
 43
0.7507517063628413
  0
INSERT
  5
48D7
  8
0
  2
$30
 10
44.644371503465933
 20
34.374569258799873
 30
0.0
 41
0.7507517063628413
 42
0.7507517063628413
 43
0.7507517063628413
  0
INSERT
  5
48D8
  8
0
  2
$30
 10
47.84257377257164
 20
35.605802057234932
 30
0.0
 41
0.7507517063628413
 42
0.7507517063628413
 43
0.7507517063628413
  0
INSERT
  5
48D9
  8
0
  2
$30
 10
47.84257377257164
 20
35.575771988980421
 30
0.0
 41
0.7507517063628413
 42
0.7507517063628413
 43
0.7507517063628413
  0
INSERT
  5
48DA
  8
0
  2
$30
 10
47.84257377257164
 20
35.545741920725909
 30
0.0
 41
0.7507517063628413
 42
0.7507517063628413
 43
0.7507517063628413
  0
INSERT
  5
48DB
  8
0
  2
$30
 10
47.84257377257164
 20
35.515711852471391
 30
0.0
 41
0.7507517063628413
 42
0.7507517063628413
 43
0.7507517063628413
  0
INSERT
  5
48DC
  8
0
  2
$30
 10
47.84257377257164
 20
35.485681784216879
 30
0.0
 41
0.7507517063628413
 42
0.7507517063628413
 43
0.7507517063628413
  0
INSERT
  5
48DD
  8
0
  2
$30
 10
44.644371503465933
 20
35.515711852471391
 30
0.0
 41
0.7507517063628413
 42
0.7507517063628413
 43
0.7507517063628413
  0
INSERT
  5
48DE
  8
0
  2
$30
 10
44.644371503465933
 20
35.545741920725909
 30
0.0
 41
0.7507517063628413
 42
0.7507517063628413
 43
0.7507517063628413
  0
INSERT
  5
48DF
  8
0
  2
$30
 10
44.644371503465933
 20
35.575771988980421
 30
0.0
 41
0.7507517063628413
 42
0.7507517063628413
 43
0.7507517063628413
  0
INSERT
  5
48E0
  8
0
  2
$30
 10
44.644371503465933
 20
35.605802057234932
 30
0.0
 41
0.7507517063628413
 42
0.7507517063628413
 43
0.7507517063628413
  0
INSERT
  5
48E1
  8
0
  2
$34
 10
49.100082880729403
 20
32.985678602028621
 30
0.0
 41
0.7507517063628413
 42
0.7507517063628413
 43
0.7507517063628413
  0
INSERT
  5
48E2
  8
0
  2
$30
 10
44.644371503465933
 20
35.485681784216879
 30
0.0
 41
0.7507517063628413
 42
0.7507517063628413
 43
0.7507517063628413
  0
INSERT
  5
48E3
  8
0
  2
$2
 10
45.177405214983551
 20
35.553249437789539
 30
0.0
 41
0.7507517063628413
 42
0.7507517063628413
 43
0.7507517063628413
  0
INSERT
  5
48E4
  8
0
  2
$2
 10
45.706685167969347
 20
35.553249437789539
 30
0.0
 41
0.7507517063628413
 42
0.7507517063628413
 43
0.7507517063628413
  0
INSERT
  5
48E5
  8
0
  2
$2
 10
46.77275259100459
 20
35.553249437789539
 30
0.0
 41
0.7507517063628413
 42
0.7507517063628413
 43
0.7507517063628413
  0
INSERT
  5
48E6
  8
0
  2
$2
 10
47.298278785458571
 20
35.553249437789539
 30
0.0
 41
0.7507517063628413
 42
0.7507517063628413
 43
0.7507517063628413
  0
TEXT
  5
48E7
  8
0
 62
     7
 10
42.637907126346327
 20
29.600303310216191
 30
0.0
 40
0.075
  1

  7
ROMAND
 72
     1
 11
42.637907126346327
 21
29.600303310216191
 31
0.0
  0
TEXT
  5
48E8
  8
0
 62
     7
 10
45.853139726346321
 20
29.22168151021619
 30
0.0
 40
0.05
  1

  7
SIMPLEX
  0
TEXT
  5
48E9
  8
0
 62
     7
 10
64.47914423628427
 20
34.65357420093158
 30
0.0
 40
0.075
  1

  7
ROMAND
 72
     1
 11
64.47914423628427
 21
34.65357420093158
 31
0.0
  0
TEXT
  5
48EA
  8
0
 62
     7
 10
67.694376836284263
 20
34.274952400931582
 30
0.0
 40
0.05
  1

  7
SIMPLEX
  0
TEXT
  5
48EB
  8
0
 62
     7
 10
57.944290167365381
 20
37.225114937646893
 30
0.0
 40
0.075
  1

  7
ROMAND
 72
     1
 11
57.944290167365381
 21
37.225114937646893
 31
0.0
  0
TEXT
  5
48EC
  8
0
 62
     7
 10
61.159522767365367
 20
36.846493137646888
 30
0.0
 40
0.05
  1

  7
SIMPLEX
  0
TEXT
  5
48ED
  8
0
 62
     7
 10
83.860756409764221
 20
53.872862712160121
 30
0.0
 40
0.075
  1

  7
ROMAND
 72
     1
 11
83.860756409764221
 21
53.872862712160121
 31
0.0
  0
TEXT
  5
48EE
  8
0
 62
     7
 10
87.075989009764186
 20
53.494240912160109
 30
0.0
 40
0.05
  1

  7
SIMPLEX
  0
TEXT
  5
48EF
  8
0
 62
     7
 10
105.7019935197021
 20
58.926133602875503
 30
0.0
 40
0.075
  1

  7
ROMAND
 72
     1
 11
105.7019935197021
 21
58.926133602875503
 31
0.0
  0
TEXT
  5
48F0
  8
0
 62
     7
 10
108.91722611970209
 20
58.547511802875512
 30
0.0
 40
0.05
  1

  7
SIMPLEX
  0
INSERT
  5
48F1
  8
0
  2
$34
 10
62.194130413465302
 20
44.933798748085749
 30
0.0
  0
INSERT
  5
48F2
  8
0
  2
$30
 10
61.169130413465297
 20
46.193798748085761
 30
0.0
  0
INSERT
  5
48F3
  8
0
  2
$30
 10
61.209130413465303
 20
46.193798748085761
 30
0.0
  0
INSERT
  5
48F4
  8
0
  2
$30
 10
61.249130413465302
 20
46.193798748085761
 30
0.0
  0
INSERT
  5
48F5
  8
0
  2
$30
 10
61.289130413465301
 20
46.193798748085761
 30
0.0
  0
INSERT
  5
48F6
  8
0
  2
$30
 10
61.3291304134653
 20
46.193798748085761
 30
0.0
  0
INSERT
  5
48F7
  8
0
  2
$30
 10
62.359130413465287
 20
46.863798748085763
 30
0.0
  0
INSERT
  5
48F8
  8
0
  2
$30
 10
62.359130413465287
 20
46.703798748085767
 30
0.0
  0
INSERT
  5
48F9
  8
0
  2
$30
 10
62.359130413465287
 20
46.743798748085752
 30
0.0
  0
INSERT
  5
48FA
  8
0
  2
$30
 10
62.359130413465287
 20
46.82379874808575
 30
0.0
  0
INSERT
  5
48FB
  8
0
  2
$30
 10
62.359130413465287
 20
46.783798748085758
 30
0.0
  0
INSERT
  5
48FC
  8
0
  2
$30
 10
66.619130413465285
 20
48.423798748085758
 30
0.0
  0
INSERT
  5
48FD
  8
0
  2
$30
 10
66.619130413465285
 20
48.383798748085759
 30
0.0
  0
INSERT
  5
48FE
  8
0
  2
$30
 10
66.619130413465285
 20
48.34379874808576
 30
0.0
  0
INSERT
  5
48FF
  8
0
  2
$30
 10
66.619130413465285
 20
48.303798748085761
 30
0.0
  0
INSERT
  5
4900
  8
0
  2
$30
 10
66.619130413465285
 20
48.263798748085748
 30
0.0
  0
INSERT
  5
4901
  8
0
  2
$30
 10
62.359130413465287
 20
48.303798748085761
 30
0.0
  0
INSERT
  5
4902
  8
0
  2
$30
 10
62.359130413465287
 20
48.34379874808576
 30
0.0
  0
INSERT
  5
4903
  8
0
  2
$30
 10
62.359130413465287
 20
48.383798748085759
 30
0.0
  0
INSERT
  5
4904
  8
0
  2
$30
 10
62.359130413465287
 20
48.423798748085758
 30
0.0
  0
INSERT
  5
4905
  8
0
  2
$34
 10
68.294130413465297
 20
44.933798748085749
 30
0.0
  0
INSERT
  5
4906
  8
0
  2
$30
 10
62.359130413465287
 20
48.263798748085748
 30
0.0
  0
INSERT
  5
4907
  8
0
  2
$2
 10
63.069130413465302
 20
48.353798748085758
 30
0.0
  0
INSERT
  5
4908
  8
0
  2
$2
 10
63.774130413465301
 20
48.353798748085758
 30
0.0
  0
INSERT
  5
4909
  8
0
  2
$2
 10
65.194130413465302
 20
48.353798748085758
 30
0.0
  0
INSERT
  5
490A
  8
0
  2
$2
 10
65.894130413465305
 20
48.353798748085758
 30
0.0
  0
INSERT
  5
490B
  8
0
  2
$2
 10
30.889704461187769
 20
27.37506625453101
 30
0.0
  0
INSERT
  5
490C
  8
0
  2
$2
 10
45.24732235235787
 20
32.573194177783222
 30
0.0
  0
INSERT
  5
490D
  8
TITLE
  2
$34
 10
46.478574236232092
 20
33.08599716562027
 30
0.0
  0
INSERT
  5
490E
  8
TITLE
  2
$2
 10
41.431468655216072
 20
30.724404450143069
 30
0.0
  0
INSERT
  5
4DA3
  8
0
  2
$2
 10
40.223661655138017
 20
67.336121528633555
 30
0.0
  0
INSERT
  5
4DA4
  8
0
  2
$2
 10
39.523661655138028
 20
67.336121528633555
 30
0.0
  0
INSERT
  5
4DA5
  8
0
  2
$2
 10
38.103661655138033
 20
67.336121528633555
 30
0.0
  0
INSERT
  5
4DA6
  8
0
  2
$2
 10
37.398661655138028
 20
67.336121528633555
 30
0.0
  0
INSERT
  5
4DA7
  8
0
  2
$30
 10
36.68866165513802
 20
67.246121528633552
 30
0.0
  0
INSERT
  5
4DA8
  8
0
  2
$34
 10
42.623661655138022
 20
63.916121528633553
 30
0.0
  0
INSERT
  5
4DA9
  8
0
  2
$30
 10
36.68866165513802
 20
67.406121528633548
 30
0.0
  0
INSERT
  5
4DAA
  8
0
  2
$30
 10
36.68866165513802
 20
67.366121528633556
 30
0.0
  0
INSERT
  5
4DAB
  8
0
  2
$30
 10
36.68866165513802
 20
67.326121528633536
 30
0.0
  0
INSERT
  5
4DAC
  8
0
  2
$30
 10
36.68866165513802
 20
67.286121528633544
 30
0.0
  0
INSERT
  5
4DAD
  8
0
  2
$30
 10
40.948661655138018
 20
67.246121528633552
 30
0.0
  0
INSERT
  5
4DAE
  8
0
  2
$30
 10
40.948661655138018
 20
67.286121528633544
 30
0.0
  0
INSERT
  5
4DAF
  8
0
  2
$30
 10
40.948661655138018
 20
67.326121528633536
 30
0.0
  0
INSERT
  5
4DB0
  8
0
  2
$30
 10
40.948661655138018
 20
67.366121528633556
 30
0.0
  0
INSERT
  5
4DB1
  8
0
  2
$30
 10
40.948661655138018
 20
67.406121528633548
 30
0.0
  0
INSERT
  5
4DB2
  8
0
  2
$30
 10
36.68866165513802
 20
65.766121528633533
 30
0.0
  0
INSERT
  5
4DB3
  8
0
  2
$30
 10
36.68866165513802
 20
65.806121528633554
 30
0.0
  0
INSERT
  5
4DB4
  8
0
  2
$30
 10
36.68866165513802
 20
65.726121528633541
 30
0.0
  0
INSERT
  5
4DB5
  8
0
  2
$30
 10
36.68866165513802
 20
65.686121528633549
 30
0.0
  0
INSERT
  5
4DB6
  8
0
  2
$30
 10
36.68866165513802
 20
65.846121528633546
 30
0.0
  0
INSERT
  5
4DB7
  8
0
  2
$30
 10
35.658661655138033
 20
65.17612152863353
 30
0.0
  0
INSERT
  5
4DB8
  8
0
  2
$30
 10
35.618661655138027
 20
65.17612152863353
 30
0.0
  0
INSERT
  5
4DB9
  8
0
  2
$30
 10
35.578661655138021
 20
65.17612152863353
 30
0.0
  0
INSERT
  5
4DBA
  8
0
  2
$30
 10
35.538661655138029
 20
65.17612152863353
 30
0.0
  0
INSERT
  5
4DBB
  8
0
  2
$30
 10
35.498661655138022
 20
65.17612152863353
 30
0.0
  0
INSERT
  5
4DBC
  8
0
  2
$34
 10
36.523661655138028
 20
63.916121528633553
 30
0.0
  0
TEXT
  5
4DBD
  8
0
 62
     7
 10
83.24675736137489
 20
77.52983458342328
 30
0.0
 40
0.05
  1

  7
SIMPLEX
  0
TEXT
  5
4DBE
  8
0
 62
     7
 10
80.031524761374882
 20
77.908456383423299
 30
0.0
 40
0.075
  1

  7
ROMAND
 72
     1
 11
80.031524761374882
 21
77.908456383423299
 31
0.0
  0
TEXT
  5
4DBF
  8
0
 62
     7
 10
61.40552025143694
 20
72.476563692707913
 30
0.0
 40
0.05
  1

  7
SIMPLEX
  0
TEXT
  5
4DC0
  8
0
 62
     7
 10
58.190287651436932
 20
72.855185492707903
 30
0.0
 40
0.075
  1

  7
ROMAND
 72
     1
 11
58.190287651436932
 21
72.855185492707903
 31
0.0
  0
TEXT
  5
4DC4
  8
0
 62
     7
 10
35.489054009038099
 20
55.828815918194657
 30
0.0
 40
0.05
  1

  7
SIMPLEX
  0
TEXT
  5
4DC5
  8
0
 62
     7
 10
32.273821409038113
 20
56.207437718194662
 30
0.0
 40
0.075
  1

  7
ROMAND
 72
     1
 11
32.273821409038113
 21
56.207437718194662
 31
0.0
  0
TEXT
  5
4DC6
  8
0
 62
     7
 10
42.023908077956989
 20
53.257275181479351
 30
0.0
 40
0.05
  1

  7
SIMPLEX
  0
TEXT
  5
4DC7
  8
0
 62
     7
 10
38.808675477957003
 20
53.635896981479362
 30
0.0
 40
0.075
  1

  7
ROMAND
 72
     1
 11
38.808675477957003
 21
53.635896981479362
 31
0.0
  0
TEXT
  5
4DC8
  8
0
 62
     7
 10
20.18267096801905
 20
48.204004290763962
 30
0.0
 40
0.05
  1

  7
SIMPLEX
  0
TEXT
  5
4DC9
  8
0
 62
     7
 10
16.967438368019049
 20
48.582626090763959
 30
0.0
 40
0.075
  1

  7
ROMAND
 72
     1
 11
16.967438368019049
 21
48.582626090763959
 31
0.0
  0
INSERT
  5
4DCA
  8
0
  2
$2
 10
21.6278100271313
 20
54.535572218337308
 30
0.0
 41
0.7507517063628413
 42
0.7507517063628413
 43
0.7507517063628413
  0
INSERT
  5
4DCB
  8
0
  2
$2
 10
21.102283832677308
 20
54.535572218337308
 30
0.0
 41
0.7507517063628413
 42
0.7507517063628413
 43
0.7507517063628413
  0
INSERT
  5
4DCC
  8
0
  2
$2
 10
20.03621640964208
 20
54.535572218337308
 30
0.0
 41
0.7507517063628413
 42
0.7507517063628413
 43
0.7507517063628413
  0
INSERT
  5
4DCD
  8
0
  2
$2
 10
19.50693645665627
 20
54.535572218337308
 30
0.0
 41
0.7507517063628413
 42
0.7507517063628413
 43
0.7507517063628413
  0
INSERT
  5
4DCE
  8
0
  2
$30
 10
18.973902745138648
 20
54.468004564764662
 30
0.0
 41
0.7507517063628413
 42
0.7507517063628413
 43
0.7507517063628413
  0
INSERT
  5
4DCF
  8
0
  2
$34
 10
23.429614122402121
 20
51.968001382576389
 30
0.0
 41
0.7507517063628413
 42
0.7507517063628413
 43
0.7507517063628413
  0
INSERT
  5
4DD0
  8
0
  2
$30
 10
18.973902745138648
 20
54.588124837782701
 30
0.0
 41
0.7507517063628413
 42
0.7507517063628413
 43
0.7507517063628413
  0
INSERT
  5
4DD1
  8
0
  2
$30
 10
18.973902745138648
 20
54.558094769528189
 30
0.0
 41
0.7507517063628413
 42
0.7507517063628413
 43
0.7507517063628413
  0
INSERT
  5
4DD2
  8
0
  2
$30
 10
18.973902745138648
 20
54.528064701273678
 30
0.0
 41
0.7507517063628413
 42
0.7507517063628413
 43
0.7507517063628413
  0
INSERT
  5
4DD3
  8
0
  2
$30
 10
18.973902745138648
 20
54.498034633019167
 30
0.0
 41
0.7507517063628413
 42
0.7507517063628413
 43
0.7507517063628413
  0
INSERT
  5
4DD4
  8
0
  2
$30
 10
22.172105014244359
 20
54.468004564764662
 30
0.0
 41
0.7507517063628413
 42
0.7507517063628413
 43
0.7507517063628413
  0
INSERT
  5
4DD5
  8
0
  2
$30
 10
22.172105014244359
 20
54.498034633019167
 30
0.0
 41
0.7507517063628413
 42
0.7507517063628413
 43
0.7507517063628413
  0
INSERT
  5
4DD6
  8
0
  2
$30
 10
22.172105014244359
 20
54.528064701273678
 30
0.0
 41
0.7507517063628413
 42
0.7507517063628413
 43
0.7507517063628413
  0
INSERT
  5
4DD7
  8
0
  2
$30
 10
22.172105014244359
 20
54.558094769528189
 30
0.0
 41
0.7507517063628413
 42
0.7507517063628413
 43
0.7507517063628413
  0
INSERT
  5
4DD8
  8
0
  2
$30
 10
22.172105014244359
 20
54.588124837782701
 30
0.0
 41
0.7507517063628413
 42
0.7507517063628413
 43
0.7507517063628413
  0
INSERT
  5
4DD9
  8
0
  2
$30
 10
18.973902745138648
 20
53.356892039347649
 30
0.0
 41
0.7507517063628413
 42
0.7507517063628413
 43
0.7507517063628413
  0
INSERT
  5
4DDA
  8
0
  2
$30
 10
18.973902745138648
 20
53.386922107602167
 30
0.0
 41
0.7507517063628413
 42
0.7507517063628413
 43
0.7507517063628413
  0
INSERT
  5
4DDB
  8
0
  2
$30
 10
18.973902745138648
 20
53.326861971093138
 30
0.0
 41
0.7507517063628413
 42
0.7507517063628413
 43
0.7507517063628413
  0
INSERT
  5
4DDC
  8
0
  2
$30
 10
18.973902745138648
 20
53.296831902838619
 30
0.0
 41
0.7507517063628413
 42
0.7507517063628413
 43
0.7507517063628413
  0
INSERT
  5
4DDD
  8
0
  2
$30
 10
18.973902745138648
 20
53.416952175856679
 30
0.0
 41
0.7507517063628413
 42
0.7507517063628413
 43
0.7507517063628413
  0
INSERT
  5
4DDE
  8
0
  2
$30
 10
18.200628487584929
 20
52.913948532593572
 30
0.0
 41
0.7507517063628413
 42
0.7507517063628413
 43
0.7507517063628413
  0
INSERT
  5
4DDF
  8
0
  2
$30
 10
18.17059841933041
 20
52.913948532593572
 30
0.0
 41
0.7507517063628413
 42
0.7507517063628413
 43
0.7507517063628413
  0
INSERT
  5
4DE0
  8
0
  2
$30
 10
18.140568351075899
 20
52.913948532593572
 30
0.0
 41
0.7507517063628413
 42
0.7507517063628413
 43
0.7507517063628413
  0
INSERT
  5
4DE1
  8
0
  2
$30
 10
18.110538282821391
 20
52.913948532593572
 30
0.0
 41
0.7507517063628413
 42
0.7507517063628413
 43
0.7507517063628413
  0
INSERT
  5
4DE2
  8
0
  2
$30
 10
18.080508214566869
 20
52.913948532593572
 30
0.0
 41
0.7507517063628413
 42
0.7507517063628413
 43
0.7507517063628413
  0
INSERT
  5
4DE3
  8
0
  2
$34
 10
18.850028713588792
 20
51.968001382576389
 30
0.0
 41
0.7507517063628413
 42
0.7507517063628413
 43
0.7507517063628413
  0
TEXT
  5
4DE4
  8
0
 62
     7
 10
53.92747254160048
 20
62.188519688393889
 30
0.0
 40
0.0375375853181421
  1

  7
SIMPLEX
  0
TEXT
  5
4DE5
  8
0
 62
     7
 10
51.513631180797042
 20
62.472770650810048
 30
0.0
 40
0.0563063779772131
  1

  7
ROMAND
 72
     1
 11
51.513631180797042
 21
62.472770650810048
 31
0.0
  0
TEXT
  5
4DF4
  8
0
 62
     7
 10
37.530126512239143
 20
58.394767944475639
 30
0.0
 40
0.0375375853181421
  1

  7
SIMPLEX
  0
TEXT
  5
4DF5
  8
0
 62
     7
 10
35.116285151435697
 20
58.679018906891798
 30
0.0
 40
0.0563063779772131
  1

  7
ROMAND
 72
     1
 11
35.116285151435697
 21
58.679018906891798
 31
0.0
  0
TEXT
  5
4DF6
  8
0
 62
     7
 10
18.073295257863229
 20
45.896442895661622
 30
0.0
 40
0.0375375853181421
  1

  7
SIMPLEX
  0
TEXT
  5
4DF7
  8
0
 62
     7
 10
15.659453897059789
 20
46.180693858077788
 30
0.0
 40
0.0563063779772131
  1

  7
ROMAND
 72
     1
 11
15.659453897059789
 21
46.180693858077788
 31
0.0
  0
TEXT
  5
4DF8
  8
0
 62
     7
 10
22.979348100936249
 20
43.965854299591037
 30
0.0
 40
0.0375375853181421
  1

  7
SIMPLEX
  0
TEXT
  5
4DF9
  8
0
 62
     7
 10
20.565506740132811
 20
44.25010526200721
 30
0.0
 40
0.0563063779772131
  1

  7
ROMAND
 72
     1
 11
20.565506740132811
 21
44.25010526200721
 31
0.0
  0
TEXT
  5
4DFA
  8
0
 62
     7
 10
6.5820020715749203
 20
40.17210255567278
 30
0.0
 40
0.0375375853181421
  1

  7
SIMPLEX
  0
TEXT
  5
4DFB
  8
0
 62
     7
 10
4.1681607107714811
 20
40.45635351808896
 30
0.0
 40
0.0563063779772131
  1

  7
ROMAND
 72
     1
 11
4.1681607107714811
 21
40.45635351808896
 31
0.0
  0
TEXT
  5
4E2C
  8
0
 62
     7
 10
6.6849031171730431
 20
45.255100392466439
 30
0.0
 40
0.05
  1

  7
SIMPLEX
  0
TEXT
  5
4E2D
  8
0
 62
     7
 10
3.4696705171730429
 20
45.633722192466443
 30
0.0
 40
0.075
  1

  7
ROMAND
 72
     1
 11
3.4696705171730429
 21
45.633722192466443
 31
0.0
  0
TEXT
  5
672F
  8
DIMENSION
 10
14.66830032740341
 20
7.0914123145228771
 30
0.0
 40
0.18
  1
%%
  7
ROMANT
  0
LINE
  5
9BBB
  8
0
 10
17.421712693930768
 20
23.213376193777592
 30
0.0
 11
21.358712693930759
 21
23.213376193777592
 31
0.0
  0
INSERT
  5
9BBE
  8
0
  2
*U21
 10
0.0
 20
0.0
 30
0.0
  0
INSERT
  5
9BBF
  8
0
  2
*U22
 10
0.0
 20
0.0
 30
0.0
  0
INSERT
  5
9BC0
  8
0
  2
*U23
 10
0.0
 20
0.0
 30
0.0
  0
LINE
  5
9BC1
  8
TITLE
  6
ACAD_ISO07W100
 10
23.140212693930771
 20
14.682347525368851
 30
0.0
 11
15.640212693930771
 21
14.682347525368851
 31
0.0
  0
LINE
  5
9BC2
  8
TITLE
  6
ACAD_ISO07W100
 10
15.640212693930771
 20
24.282347525368859
 30
0.0
 11
23.140212693930771
 21
24.282347525368859
 31
0.0
  0
LINE
  5
9BC3
  8
0
 10
17.39021269393076
 20
23.73203022609216
 30
0.0
 11
21.39021269393076
 21
23.73203022609216
 31
0.0
  0
LINE
  5
9BC4
  8
0
 10
23.640212693930771
 20
13.98234752536885
 30
0.0
 11
15.140212693930771
 21
13.98234752536885
 31
0.0
  0
LINE
  5
9BC5
  8
0
 10
15.140212693930771
 20
24.982347525368851
 30
0.0
 11
23.640212693930771
 21
24.982347525368851
 31
0.0
  0
LINE
  5
9BC9
  8
TITLE
  6
ACAD_ISO07W100
 10
15.640212693930771
 20
24.282347525368859
 30
0.0
 11
15.640212693930771
 21
14.682347525368851
 31
0.0
  0
LINE
  5
9BCA
  8
0
 10
15.140212693930771
 20
24.982347525368851
 30
0.0
 11
15.140212693930771
 21
13.98234752536885
 31
0.0
  0
INSERT
  5
9BCD
  8
0
  2
*U24
 10
0.0
 20
0.0
 30
0.0
  0
LINE
  5
9BCE
  8
TITLE
 10
17.340504023957308
 20
15.751138479060369
 30
0.0
 11
17.140260203725791
 21
15.751138479060369
 31
0.0
  0
LINE
  5
9BCF
  8
TITLE
 10
17.140260203725791
 20
15.751138479060369
 30
0.0
 11
17.192856217601001
 21
16.012044285832999
 31
0.0
  0
INSERT
  5
9BD0
  8
0
  6
CONTINUOUS
  2
*U25
 10
0.0
 20
0.0
 30
0.0
1001
ACAD
1002
{
1000
R14_HATCH_DATA
1000
9BD0
1011
1.0
1021
3.0164936459056424E+133
1031
-3.8190560904290630E+091
1021
0.0
1031
0.0
1011
0.0
1021
3.0164936459056424E+133
1031
-3.8190560904290630E+091
1021
1.0
1031
0.0
1011
0.0
1021
3.0164936459056424E+133
1031
-3.8190560904290630E+091
1021
0.0
1031
1.0
1040
0.0
1010
0.0
1020
0.0
1030
1.0
1000
SOLID
1070
     1
1070
     0
1071
       10
1071
        7
1070
     0
1070
     1
1071
        4
1040
16.155265478999091
1040
16.012044285832999
1040
15.948964703223369
1040
16.012044285832999
1040
15.9166083814607
1040
15.949346096552819
1040
16.12290915723641
1040
15.949346096552819
1071
        0
1071
        7
1070
     0
1070
     1
1071
        4
1040
16.10470294930122
1040
15.912947273491101
1040
15.898402173525501
1040
15.912947273491101
1040
15.86199247621685
1040
15.85023820996399
1040
16.068301407677779
1040
15.85023820996399
1071
        0
1071
        7
1070
     0
1070
     1
1071
        4
1040
16.050097918304321
1040
15.81383666834054
1040
15.84379714252859
1040
15.81383666834054
1040
15.80940733658859
1040
15.751138479060369
1040
16.013685502433919
1040
15.751138479060369
1071
        0
1071
        7
1070
     0
1070
     1
1071
        8
1040
16.288763171527911
1040
16.012044285832999
1040
16.224031498070431
1040
16.012044285832999
1040
16.082451521505249
1040
15.751138479060369
1040
16.141115365171601
1040
15.751138479060369
1040
16.169423748511779
1040
15.807768838549389
1040
16.270556963592728
1040
15.807768838549389
1040
16.27864740331427
1040
15.751138479060369
1040
16.329209933012141
1040
15.751138479060369
1071
        0
1071
       22
1070
     0
1070
     1
1071
        3
1040
16.19167517630774
1040
15.850238209963999
1040
16.250328145727149
1040
15.95743925483608
1040
16.264489133801579
1040
15.85023820996399
1071
        0
1071
        7
1070
     0
1070
     1
1071
        6
1040
16.468767299646931
1040
16.012044285832999
1040
16.41618216001865
1040
16.012044285832999
1040
16.361574410460008
1040
15.751138479060369
1040
16.549668978300531
1040
15.751138479060369
1040
16.561807356444579
1040
15.79360785047497
1040
16.422249989809821
1040
15.79360785047497
1071
        0
1071
        7
1070
     0
1070
     1
1071
        8
1040
16.79642738980742
1040
16.012044285832999
1040
16.592149223962078
1040
16.012044285832999
1040
16.586081394170929
1040
15.967552304488009
1040
16.658895351664771
1040
15.967552304488009
1040
16.614389777511111
1040
15.751138479060369
1040
16.66496318145591
1040
15.751138479060369
1040
16.7094551628009
1040
15.967552304488009
1040
16.788336950085881
1040
15.967552304488009
1071
        0
1071
        7
1070
     0
1070
     1
1071
        4
1040
16.881377006883572
1040
16.012044285832999
1040
16.82878371157009
1040
16.012044285832999
1040
16.776198571941851
1040
15.751138479060369
1040
16.824735773147591
1040
15.751138479060369
1071
        0
1071
        7
1070
     0
1070
     1
1071
       10
1040
16.98452195764796
1040
16.012044285832999
1040
16.931939536581432
1040
16.012044285832999
1040
16.87733178702279
1040
15.751138479060369
1040
16.929914208089318
1040
15.751138479060369
1040
16.96430401402931
1040
15.92709466875686
1040
17.031047423170261
1040
15.751138479060369
1040
17.081609952868121
1040
15.751138479060369
1040
17.136214983865042
1040
16.012044285832999
1040
17.08363256279852
1040
16.012044285832999
1040
17.049242756858511
1040
15.836088096136489
1071
        0
1071
        7
1070
     0
1070
     1
1071
       12
1040
17.36274457750633
1040
15.90687672513822
1040
17.223187210871551
1040
15.906876725138209
1040
17.235325589015599
1040
15.967552304488009
1040
17.372857627158261
1040
15.967552304488009
1040
17.384996005302281
1040
16.012044285832999
1040
17.192856217601001
1040
16.012044285832999
1040
17.140260203725791
1040
15.751138479060369
1040
17.340504023957308
1040
15.751138479060369
1040
17.35263152785442
1040
15.79360785047497
1040
17.198913173145218
1040
15.79360785047497
1040
17.215096771150019
1040
15.86439647947668
1040
17.35263152785442
1040
15.86439647947668
1071
        0
1070
     0
1070
     1
1040
0.0051866775489356
1071
       10
1040
15.97759288285924
1040
15.981757965218231
1040
0.0
1040
15.96146785979683
1040
15.87432710570495
1040
0.0
1040
15.934592759969039
1040
15.766896193143239
1040
0.0
1040
16.15496850488832
1040
15.831354730070579
1040
0.0
1040
16.15496850488832
1040
15.831354730070579
1040
0.0
1040
16.418344372697799
1040
15.91192790122976
1040
0.0
1040
16.692470225187002
1040
15.997872599450069
1040
0.0
1040
16.826845724325899
1040
15.91192790122976
1040
0.0
1040
16.971971208144542
1040
15.949528696754561
1040
0.0
1040
17.21922196080596
1040
15.895813266997919
1040
0.0
1002
}
  0
LINE
  5
9BD4
  8
TITLE
 10
15.84379714252859
 20
15.81383666834054
 30
0.0
 11
16.050097918304321
 21
15.81383666834054
 31
0.0
  0
LINE
  5
9BD5
  8
TITLE
 10
16.013685502433919
 20
15.751138479060369
 30
0.0
 11
15.80940733658859
 21
15.751138479060369
 31
0.0
  0
LINE
  5
9BD6
  8
TITLE
 10
15.80940733658859
 20
15.751138479060369
 30
0.0
 11
15.84379714252859
 21
15.81383666834054
 31
0.0
  0
LINE
  5
9BD7
  8
TITLE
 10
16.42224998980981
 20
15.79360785047497
 30
0.0
 11
16.561807356444579
 21
15.79360785047497
 31
0.0
  0
LINE
  5
9BD8
  8
TITLE
 10
16.549668978300549
 20
15.751138479060369
 30
0.0
 11
16.361574410460008
 21
15.751138479060369
 31
0.0
  0
LINE
  5
9BD9
  8
TITLE
 10
16.46876729964691
 20
16.012044285832999
 30
0.0
 11
16.42224998980981
 21
15.79360785047497
 31
0.0
  0
LINE
  5
9BDA
  8
TITLE
 10
16.288763171527911
 20
16.012044285832999
 30
0.0
 11
16.329209933012141
 21
15.751138479060369
 31
0.0
  0
LINE
  5
9BDB
  8
TITLE
 10
16.361574410460008
 20
15.751138479060369
 30
0.0
 11
16.416182160018661
 21
16.012044285832999
 31
0.0
  0
LINE
  5
9BDC
  8
TITLE
 10
16.082451521505259
 20
15.751138479060369
 30
0.0
 11
16.224031498070431
 21
16.012044285832999
 31
0.0
  0
LINE
  5
9BDD
  8
TITLE
 10
16.270556963592728
 20
15.807768838549389
 30
0.0
 11
16.169423748511779
 21
15.807768838549389
 31
0.0
  0
LINE
  5
9BDE
  8
TITLE
 10
16.169423748511779
 20
15.807768838549389
 30
0.0
 11
16.141115365171601
 21
15.751138479060369
 31
0.0
  0
LINE
  5
9BDF
  8
TITLE
 10
16.050097918304321
 20
15.81383666834054
 30
0.0
 11
16.013685502433919
 21
15.751138479060369
 31
0.0
  0
LINE
  5
9BE0
  8
TITLE
 10
16.141115365171601
 20
15.751138479060369
 30
0.0
 11
16.082451521505259
 21
15.751138479060369
 31
0.0
  0
LINE
  5
9BE1
  8
TITLE
 10
16.329209933012141
 20
15.751138479060369
 30
0.0
 11
16.27864740331427
 21
15.751138479060369
 31
0.0
  0
LINE
  5
9BE2
  8
TITLE
 10
16.27864740331427
 20
15.751138479060369
 30
0.0
 11
16.270556963592728
 21
15.807768838549389
 31
0.0
  0
LINE
  5
9BE3
  8
TITLE
 10
15.86199247621685
 20
15.85023820996399
 30
0.0
 11
15.898402173525501
 21
15.912947273491101
 31
0.0
  0
LINE
  5
9BE4
  8
TITLE
 10
16.068301407677779
 20
15.85023820996399
 30
0.0
 11
15.86199247621685
 21
15.85023820996399
 31
0.0
  0
LINE
  5
9BE5
  8
TITLE
 10
16.10470294930122
 20
15.912947273491101
 30
0.0
 11
16.068301407677779
 21
15.85023820996399
 31
0.0
  0
LINE
  5
9BE6
  8
TITLE
 10
15.916608381460691
 20
15.949346096552819
 30
0.0
 11
15.948964703223369
 21
16.012044285832999
 31
0.0
  0
LINE
  5
9BE7
  8
TITLE
 10
15.898402173525501
 20
15.912947273491101
 30
0.0
 11
16.10470294930122
 21
15.912947273491101
 31
0.0
  0
LINE
  5
9BE8
  8
TITLE
 10
16.12290915723641
 20
15.949346096552819
 30
0.0
 11
15.916608381460691
 21
15.949346096552819
 31
0.0
  0
LINE
  5
9BE9
  8
TITLE
 10
16.155265478999091
 20
16.012044285832999
 30
0.0
 11
16.12290915723641
 21
15.949346096552819
 31
0.0
  0
LINE
  5
9BEA
  8
TITLE
 10
15.948964703223369
 20
16.012044285832999
 30
0.0
 11
16.155265478999091
 21
16.012044285832999
 31
0.0
  0
LINE
  5
9BEB
  8
TITLE
 10
16.250328145727149
 20
15.95743925483608
 30
0.0
 11
16.19167517630774
 21
15.85023820996399
 31
0.0
  0
LINE
  5
9BEC
  8
TITLE
 10
16.19167517630774
 20
15.85023820996399
 30
0.0
 11
16.264489133801579
 21
15.85023820996399
 31
0.0
  0
LINE
  5
9BED
  8
TITLE
 10
16.224031498070431
 20
16.012044285832999
 30
0.0
 11
16.288763171527911
 21
16.012044285832999
 31
0.0
  0
LINE
  5
9BEE
  8
TITLE
 10
16.264489133801579
 20
15.85023820996399
 30
0.0
 11
16.250328145727149
 21
15.95743925483608
 31
0.0
  0
LINE
  5
9BEF
  8
TITLE
 10
16.416182160018661
 20
16.012044285832999
 30
0.0
 11
16.46876729964691
 21
16.012044285832999
 31
0.0
  0
LINE
  5
9BF0
  8
TITLE
 10
16.98452195764796
 20
16.012044285832999
 30
0.0
 11
17.049242756858511
 21
15.8360880961365
 31
0.0
  0
LINE
  5
9BF1
  8
TITLE
 10
17.049242756858511
 20
15.8360880961365
 30
0.0
 11
17.08363256279851
 21
16.012044285832999
 31
0.0
  0
LINE
  5
9BF2
  8
TITLE
 10
16.87733178702279
 20
15.751138479060369
 30
0.0
 11
16.931939536581432
 21
16.012044285832999
 31
0.0
  0
LINE
  5
9BF3
  8
TITLE
 10
17.031047423170261
 20
15.751138479060369
 30
0.0
 11
16.96430401402931
 21
15.92709466875686
 31
0.0
  0
LINE
  5
9BF4
  8
TITLE
 10
16.96430401402931
 20
15.92709466875686
 30
0.0
 11
16.929914208089318
 21
15.751138479060369
 31
0.0
  0
LINE
  5
9BF5
  8
TITLE
 10
17.136214983865042
 20
16.012044285832999
 30
0.0
 11
17.081609952868121
 21
15.751138479060369
 31
0.0
  0
LINE
  5
9BF6
  8
TITLE
 10
16.881377006883561
 20
16.012044285832999
 30
0.0
 11
16.824735773147591
 21
15.751138479060369
 31
0.0
  0
LINE
  5
9BF7
  8
TITLE
 10
16.6143897775111
 20
15.751138479060369
 30
0.0
 11
16.658895351664761
 21
15.967552304488009
 31
0.0
  0
LINE
  5
9BF8
  8
TITLE
 10
16.7094551628009
 20
15.967552304488009
 30
0.0
 11
16.66496318145591
 21
15.751138479060369
 31
0.0
  0
LINE
  5
9BF9
  8
TITLE
 10
16.77619857194184
 20
15.751138479060369
 30
0.0
 11
16.82878371157009
 21
16.012044285832999
 31
0.0
  0
LINE
  5
9BFA
  8
TITLE
 10
16.66496318145591
 20
15.751138479060369
 30
0.0
 11
16.6143897775111
 21
15.751138479060369
 31
0.0
  0
LINE
  5
9BFB
  8
TITLE
 10
16.561807356444579
 20
15.79360785047497
 30
0.0
 11
16.549668978300549
 21
15.751138479060369
 31
0.0
  0
LINE
  5
9BFC
  8
TITLE
 10
16.824735773147591
 20
15.751138479060369
 30
0.0
 11
16.77619857194184
 21
15.751138479060369
 31
0.0
  0
LINE
  5
9BFD
  8
TITLE
 10
16.929914208089318
 20
15.751138479060369
 30
0.0
 11
16.87733178702279
 21
15.751138479060369
 31
0.0
  0
LINE
  5
9BFE
  8
TITLE
 10
17.081609952868121
 20
15.751138479060369
 30
0.0
 11
17.031047423170261
 21
15.751138479060369
 31
0.0
  0
LINE
  5
9BFF
  8
TITLE
 10
16.82878371157009
 20
16.012044285832999
 30
0.0
 11
16.881377006883561
 21
16.012044285832999
 31
0.0
  0
LINE
  5
9C00
  8
TITLE
 10
16.79642738980742
 20
16.012044285832999
 30
0.0
 11
16.788336950085881
 21
15.967552304488009
 31
0.0
  0
LINE
  5
9C01
  8
TITLE
 10
16.788336950085881
 20
15.967552304488009
 30
0.0
 11
16.7094551628009
 21
15.967552304488009
 31
0.0
  0
LINE
  5
9C02
  8
TITLE
 10
16.658895351664761
 20
15.967552304488009
 30
0.0
 11
16.586081394170929
 21
15.967552304488009
 31
0.0
  0
LINE
  5
9C03
  8
TITLE
 10
16.586081394170929
 20
15.967552304488009
 30
0.0
 11
16.592149223962078
 21
16.012044285832999
 31
0.0
  0
LINE
  5
9C04
  8
TITLE
 10
16.592149223962078
 20
16.012044285832999
 30
0.0
 11
16.79642738980742
 21
16.012044285832999
 31
0.0
  0
LINE
  5
9C05
  8
TITLE
 10
16.931939536581432
 20
16.012044285832999
 30
0.0
 11
16.98452195764796
 21
16.012044285832999
 31
0.0
  0
LINE
  5
9C06
  8
TITLE
 10
17.08363256279851
 20
16.012044285832999
 30
0.0
 11
17.136214983865042
 21
16.012044285832999
 31
0.0
  0
INSERT
  5
9C09
  8
0
  2
*U26
 10
0.0
 20
0.0
 30
0.0
  0
LINE
  5
9C0A
  8
TITLE
 10
17.528598591797842
 20
15.87451224769033
 30
0.0
 11
17.591296781078022
 21
15.751138479060369
 31
0.0
  0
LINE
  5
9C0B
  8
TITLE
 10
17.528598591797842
 20
15.87451224769033
 30
0.0
 11
17.591296781078022
 21
15.751138479060369
 31
0.0
  0
LINE
  5
9C0C
  8
TITLE
 10
17.215096771150019
 20
15.86439647947668
 30
0.0
 11
17.198913173145218
 21
15.79360785047497
 31
0.0
  0
LINE
  5
9C0D
  8
TITLE
 10
17.354654137784799
 20
15.751138479060369
 30
0.0
 11
17.469945622378429
 21
15.88260268741187
 31
0.0
  0
LINE
  5
9C0E
  8
TITLE
 10
17.354654137784799
 20
15.751138479060369
 30
0.0
 11
17.469945622378429
 21
15.88260268741187
 31
0.0
  0
INSERT
  5
9C0F
  8
0
  6
CONTINUOUS
  2
*U27
 10
0.0
 20
0.0
 30
0.0
1001
ACAD
1002
{
1000
R14_HATCH_DATA
1000
9C0F
1011
1.0
1021
3.0164936459056424E+133
1031
-3.8190560904290630E+091
1021
0.0
1031
0.0
1011
0.0
1021
3.0164936459056424E+133
1031
-3.8190560904290630E+091
1021
1.0
1031
0.0
1011
0.0
1021
3.0164936459056424E+133
1031
-3.8190560904290630E+091
1021
0.0
1031
1.0
1040
0.0
1010
0.0
1020
0.0
1030
1.0
1000
SOLID
1070
     1
1070
     0
1071
        1
1071
        7
1070
     0
1070
     1
1071
       23
1040
17.647927140567042
1040
16.012044285832999
1040
17.58118101286437
1040
16.012044285832999
1040
17.538796830089979
1040
15.962966127745149
1040
17.536090947937819
1040
15.95938574503788
1040
17.530545081999598
1040
15.952793232831819
1040
17.524553371936989
1040
15.945300876692
1040
17.518409422417321
1040
15.93863496331933
1040
17.511816910211468
1040
15.931066487450799
1040
17.504324554071491
1040
15.92304944889608
1040
17.502900027722681
1040
15.924998657659639
1040
17.502375345307929
1040
15.9264965851753
1040
17.502301944141109
1040
15.927094668756849
1040
17.459832572726508
1040
16.012044285832999
1040
17.40522482316786
1040
16.012044285832999
1040
17.469945622378429
1040
15.88260268741187
1040
17.354654137784799
1040
15.751138479060369
1040
17.419374936995361
1040
15.751138479060369
1040
17.455784634303939
1040
15.79158524054438
1040
17.45782570559922
1040
15.793747635361131
1040
17.49420878585784
1040
15.83406548620613
1040
17.53466642158898
1040
15.751138479060369
1040
17.591296781078022
1040
15.751138479060369
1040
17.528598591797842
1040
15.87451224769033
1071
        0
1070
     0
1070
     1
1040
0.0015733976332109
1071
        1
1040
17.50068528859704
1040
15.90642942922401
1040
0.0
1002
}
  0
LINE
  5
9C10
  8
TITLE
 10
17.534666421588991
 20
15.751138479060369
 30
0.0
 11
17.514437603723419
 21
15.789562630614199
 31
0.0
  0
LINE
  5
9C11
  8
TITLE
 10
17.534666421588991
 20
15.751138479060369
 30
0.0
 11
17.494208785857829
 21
15.83406548620612
 31
0.0
  0
LINE
  5
9C12
  8
TITLE
 10
17.514437603723419
 20
15.789562630614199
 30
0.0
 11
17.50379987165676
 21
15.81188745957699
 31
0.0
  0
LINE
  5
9C13
  8
TITLE
 10
17.198913173145218
 20
15.79360785047497
 30
0.0
 11
17.35263152785441
 21
15.79360785047497
 31
0.0
  0
LINE
  5
9C14
  8
TITLE
 10
17.49675607820296
 20
15.82657313006615
 30
0.0
 11
17.494208785857829
 21
15.83406548620612
 31
0.0
  0
LINE
  5
9C15
  8
TITLE
 10
17.494208785857829
 20
15.83406548620612
 30
0.0
 11
17.486050382092941
 21
15.82484956192655
 31
0.0
  0
LINE
  5
9C16
  8
TITLE
 10
17.486050382092941
 20
15.82484956192655
 30
0.0
 11
17.473392758657631
 21
15.81024001116595
 31
0.0
  0
LINE
  5
9C17
  8
TITLE
 10
17.473392758657631
 20
15.81024001116595
 30
0.0
 11
17.45578463430401
 21
15.791585240544579
 31
0.0
  0
LINE
  5
9C18
  8
TITLE
 10
17.419374936995361
 20
15.751138479060369
 30
0.0
 11
17.354654137784799
 21
15.751138479060369
 31
0.0
  0
LINE
  5
9C19
  8
TITLE
 10
17.419374936995361
 20
15.751138479060369
 30
0.0
 11
17.354654137784799
 21
15.751138479060369
 31
0.0
  0
LINE
  5
9C1A
  8
TITLE
 10
17.494208785857829
 20
15.83406548620612
 30
0.0
 11
17.419374936995361
 21
15.751138479060369
 31
0.0
  0
LINE
  5
9C1B
  8
TITLE
 10
17.45578463430401
 20
15.791585240544579
 30
0.0
 11
17.419374936995361
 21
15.751138479060369
 31
0.0
  0
LINE
  5
9C1C
  8
TITLE
 10
17.35263152785441
 20
15.79360785047497
 30
0.0
 11
17.340504023957308
 21
15.751138479060369
 31
0.0
  0
LINE
  5
9C1D
  8
TITLE
 10
17.50379987165676
 20
15.81188745957699
 30
0.0
 11
17.49675607820296
 21
15.82657313006615
 31
0.0
  0
LINE
  5
9C1E
  8
TITLE
 10
17.591296781078022
 20
15.751138479060369
 30
0.0
 11
17.534666421588991
 21
15.751138479060369
 31
0.0
  0
LINE
  5
9C1F
  8
TITLE
 10
17.591296781078022
 20
15.751138479060369
 30
0.0
 11
17.534666421588991
 21
15.751138479060369
 31
0.0
  0
LINE
  5
9C20
  8
TITLE
 10
17.511816910211451
 20
15.931066487450799
 30
0.0
 11
17.51840942241736
 21
15.93863496331933
 31
0.0
  0
LINE
  5
9C21
  8
TITLE
 10
17.504324554071491
 20
15.92304944889608
 30
0.0
 11
17.58118101286437
 21
16.012044285832999
 31
0.0
  0
LINE
  5
9C22
  8
TITLE
 10
17.502900027722671
 20
15.924998657659639
 30
0.0
 11
17.504324554071491
 21
15.92304944889608
 31
0.0
  0
LINE
  5
9C23
  8
TITLE
 10
17.504324554071491
 20
15.92304944889608
 30
0.0
 11
17.511816910211451
 21
15.931066487450799
 31
0.0
  0
LINE
  5
9C24
  8
TITLE
 10
17.192856217601001
 20
16.012044285832999
 30
0.0
 11
17.384996005302281
 21
16.012044285832999
 31
0.0
  0
LINE
  5
9C25
  8
TITLE
 10
17.372857627158261
 20
15.967552304488009
 30
0.0
 11
17.235325589015599
 21
15.967552304488009
 31
0.0
  0
LINE
  5
9C26
  8
TITLE
 10
17.223187210871551
 20
15.90687672513822
 30
0.0
 11
17.36274457750633
 21
15.90687672513822
 31
0.0
  0
LINE
  5
9C27
  8
TITLE
 10
17.35263152785441
 20
15.86439647947668
 30
0.0
 11
17.215096771150019
 21
15.86439647947668
 31
0.0
  0
LINE
  5
9C28
  8
TITLE
 10
17.235325589015599
 20
15.967552304488009
 30
0.0
 11
17.223187210871551
 21
15.90687672513822
 31
0.0
  0
LINE
  5
9C29
  8
TITLE
 10
17.40522482316786
 20
16.012044285832999
 30
0.0
 11
17.459832572726508
 21
16.012044285832999
 31
0.0
  0
LINE
  5
9C2A
  8
TITLE
 10
17.469945622378429
 20
15.88260268741187
 30
0.0
 11
17.40522482316786
 21
16.012044285832999
 31
0.0
  0
LINE
  5
9C2B
  8
TITLE
 10
17.459832572726508
 20
16.012044285832999
 30
0.0
 11
17.502301944141109
 21
15.927094668756849
 31
0.0
  0
LINE
  5
9C2C
  8
TITLE
 10
17.469945622378429
 20
15.88260268741187
 30
0.0
 11
17.40522482316786
 21
16.012044285832999
 31
0.0
  0
LINE
  5
9C2D
  8
TITLE
 10
17.40522482316786
 20
16.012044285832999
 30
0.0
 11
17.459832572726508
 21
16.012044285832999
 31
0.0
  0
LINE
  5
9C2E
  8
TITLE
 10
17.459832572726508
 20
16.012044285832999
 30
0.0
 11
17.484106610452859
 21
15.96350708462724
 31
0.0
  0
LINE
  5
9C2F
  8
TITLE
 10
17.484106610452859
 20
15.96350708462724
 30
0.0
 11
17.48612922038323
 21
15.959910427452639
 31
0.0
  0
LINE
  5
9C30
  8
TITLE
 10
17.48612922038323
 20
15.959910427452639
 30
0.0
 11
17.492194331612659
 21
15.94822333055652
 31
0.0
  0
LINE
  5
9C31
  8
TITLE
 10
17.492194331612659
 20
15.94822333055652
 30
0.0
 11
17.502301944141109
 21
15.92709466875686
 31
0.0
  0
LINE
  5
9C32
  8
TITLE
 10
17.502301944141109
 20
15.92709466875686
 30
0.0
 11
17.502375345307929
 21
15.92649658517529
 31
0.0
  0
LINE
  5
9C33
  8
TITLE
 10
17.384996005302281
 20
16.012044285832999
 30
0.0
 11
17.372857627158261
 21
15.967552304488009
 31
0.0
  0
LINE
  5
9C34
  8
TITLE
 10
17.36274457750633
 20
15.90687672513822
 30
0.0
 11
17.35263152785441
 21
15.86439647947668
 31
0.0
  0
LINE
  5
9C35
  8
TITLE
 10
17.502301944141109
 20
15.927094668756849
 30
0.0
 11
17.504324554071491
 21
15.92304944889608
 31
0.0
  0
LINE
  5
9C36
  8
TITLE
 10
17.502375345307929
 20
15.92649658517529
 30
0.0
 11
17.502900027722671
 21
15.924998657659639
 31
0.0
  0
INSERT
  5
9C37
  8
0
  2
*U28
 10
0.0
 20
0.0
 30
0.0
  0
LINE
  5
9C38
  8
TITLE
 10
17.58118101286437
 20
16.012044285832999
 30
0.0
 11
17.647927140567042
 21
16.012044285832999
 31
0.0
  0
LINE
  5
9C39
  8
TITLE
 10
17.58118101286437
 20
16.012044285832999
 30
0.0
 11
17.647927140567042
 21
16.012044285832999
 31
0.0
  0
LINE
  5
9C3A
  8
TITLE
 10
17.530545081999652
 20
15.95279323283202
 30
0.0
 11
17.536090947937812
 21
15.95938574503791
 31
0.0
  0
LINE
  5
9C3B
  8
TITLE
 10
17.536090947937812
 20
15.95938574503791
 30
0.0
 11
17.54073425138014
 21
15.96552969455762
 31
0.0
  0
LINE
  5
9C3C
  8
TITLE
 10
17.54073425138014
 20
15.96552969455762
 30
0.0
 11
17.58118101286437
 21
16.012044285832999
 31
0.0
  0
LINE
  5
9C3D
  8
TITLE
 10
17.51840942241736
 20
15.93863496331933
 30
0.0
 11
17.52455337193706
 21
15.94530087669205
 31
0.0
  0
LINE
  5
9C3E
  8
TITLE
 10
17.647927140567042
 20
16.012044285832999
 30
0.0
 11
17.528598591797842
 21
15.87451224769033
 31
0.0
  0
LINE
  5
9C3F
  8
TITLE
 10
17.647927140567042
 20
16.012044285832999
 30
0.0
 11
17.528598591797842
 21
15.87451224769033
 31
0.0
  0
LINE
  5
9C40
  8
TITLE
 10
17.52455337193706
 20
15.94530087669205
 30
0.0
 11
17.530545081999652
 21
15.95279323283202
 31
0.0
  0
POLYLINE
  5
9C41
  8
0
 66
     1
 10
0.0
 20
0.0
 30
0.0
 70
     1
 40
0.0040134408646155
 41
0.0040134408646155
  0
VERTEX
  5
A6E2
  8
0
 10
17.700416087419569
 20
16.044081486554031
 30
0.0
 42
1.0
  0
VERTEX
  5
A6E3
  8
0
 10
17.767173311555808
 20
16.044081486554031
 30
0.0
 42
1.0
  0
SEQEND
  5
A6E4
  8
0
  0
INSERT
  5
9C44
  8
0
  2
*U29
 10
0.0
 20
0.0
 30
0.0
  0
INSERT
  5
9C45
  8
0
  2
*U30
 10
0.0
 20
0.0
 30
0.0
  0
INSERT
  5
9C46
  8
0
  2
*U31
 10
0.0
 20
0.0
 30
0.0
  0
LINE
  5
9C48
  8
0
 10
15.78573397855607
 20
19.482347525368851
 30
0.0
 11
15.140212693930771
 21
19.482347525368851
 31
0.0
  0
LINE
  5
9C49
  8
0
 10
16.559441257032589
 20
17.513847525368849
 30
0.0
 11
16.559441257032589
 21
21.45084752536885
 31
0.0
  0
LINE
  5
9C4B
  8
0
 10
16.091432487733989
 20
17.482347525368851
 30
0.0
 11
16.091432487733989
 21
21.482347525368851
 31
0.0
  0
INSERT
  5
9C4E
  8
0
  2
*U32
 10
0.0
 20
0.0
 30
0.0
  0
INSERT
  5
9C4F
  8
0
  2
*U33
 10
0.0
 20
0.0
 30
0.0
  0
LINE
  5
9C50
  8
0
 10
16.163399369223981
 20
17.482347525368851
 30
0.0
 11
16.019465606244012
 21
17.482347525368851
 31
0.0
  0
LINE
  5
9C51
  8
0
 10
16.63140813852257
 20
17.513847525368849
 30
0.0
 11
16.4874743755426
 21
17.513847525368849
 31
0.0
  0
LINE
  5
9C52
  8
0
 10
16.63140813852257
 20
17.907547525368852
 30
0.0
 11
16.4874743755426
 21
17.907547525368852
 31
0.0
  0
INSERT
  5
9C53
  8
0
  2
*U34
 10
0.0
 20
0.0
 30
0.0
  0
INSERT
  5
9C54
  8
0
  2
*U35
 10
0.0
 20
0.0
 30
0.0
  0
LINE
  5
9C55
  8
0
 10
16.63140813852257
 20
18.301247525368851
 30
0.0
 11
16.4874743755426
 21
18.301247525368851
 31
0.0
  0
INSERT
  5
9C56
  8
0
  2
*U36
 10
0.0
 20
0.0
 30
0.0
  0
POINT
  5
9C57
  8
0
 10
16.091432487733989
 20
18.482347525368851
 30
0.0
  0
LINE
  5
9C58
  8
0
 10
16.163399369223981
 20
18.482347525368851
 30
0.0
 11
16.019465606244012
 21
18.482347525368851
 31
0.0
  0
LINE
  5
9C59
  8
0
 10
16.63140813852257
 20
18.69494752536885
 30
0.0
 11
16.4874743755426
 21
18.69494752536885
 31
0.0
  0
INSERT
  5
9C5A
  8
0
  2
*U37
 10
0.0
 20
0.0
 30
0.0
  0
INSERT
  5
9C5B
  8
0
  2
*U38
 10
0.0
 20
0.0
 30
0.0
  0
LINE
  5
9C5C
  8
0
 10
16.63140813852257
 20
19.088647525368849
 30
0.0
 11
16.4874743755426
 21
19.088647525368849
 31
0.0
  0
INSERT
  5
9C5D
  8
0
  2
*U39
 10
0.0
 20
0.0
 30
0.0
  0
LINE
  5
9C5E
  8
0
 10
16.163399369223981
 20
19.482347525368851
 30
0.0
 11
16.019465606244012
 21
19.482347525368851
 31
0.0
  0
LINE
  5
9C5F
  8
0
 10
16.63140813852257
 20
19.482347525368851
 30
0.0
 11
16.4874743755426
 21
19.482347525368851
 31
0.0
  0
LINE
  5
9C60
  8
0
 10
16.412071690763739
 20
19.482347525368851
 30
0.0
 11
16.341443357249009
 21
19.482347525368851
 31
0.0
  0
INSERT
  5
9C61
  8
0
  2
*U40
 10
0.0
 20
0.0
 30
0.0
  0
LINE
  5
9C62
  8
0
 10
18.475212693930771
 20
19.482347525368851
 30
0.0
 11
16.800508176605671
 21
19.482347525368851
 31
0.0
  0
INSERT
  5
9C63
  8
0
  2
*U41
 10
0.0
 20
0.0
 30
0.0
  0
LINE
  5
9C66
  8
0
 10
16.63140813852257
 20
19.87604752536885
 30
0.0
 11
16.4874743755426
 21
19.87604752536885
 31
0.0
  0
INSERT
  5
9C67
  8
0
  2
*U42
 10
0.0
 20
0.0
 30
0.0
  0
POINT
  5
9C68
  8
0
 10
16.091432487733989
 20
20.482347525368851
 30
0.0
  0
LINE
  5
9C69
  8
0
 10
16.163399369223981
 20
20.482347525368851
 30
0.0
 11
16.019465606244012
 21
20.482347525368851
 31
0.0
  0
LINE
  5
9C6A
  8
0
 10
16.63140813852257
 20
20.269747525368849
 30
0.0
 11
16.4874743755426
 21
20.269747525368849
 31
0.0
  0
INSERT
  5
9C6B
  8
0
  2
*U43
 10
0.0
 20
0.0
 30
0.0
  0
INSERT
  5
9C6C
  8
0
  2
*U44
 10
0.0
 20
0.0
 30
0.0
  0
INSERT
  5
9C6F
  8
0
  2
*U45
 10
0.0
 20
0.0
 30
0.0
  0
INSERT
  5
9C70
  8
0
  2
*U46
 10
0.0
 20
0.0
 30
0.0
  0
INSERT
  5
9C73
  8
0
  2
*U47
 10
0.0
 20
0.0
 30
0.0
  0
LINE
  5
9C74
  8
0
 10
16.63140813852257
 20
20.663447525368849
 30
0.0
 11
16.4874743755426
 21
20.663447525368849
 31
0.0
  0
LINE
  5
9C75
  8
0
 10
16.63140813852257
 20
21.057147525368851
 30
0.0
 11
16.4874743755426
 21
21.057147525368851
 31
0.0
  0
INSERT
  5
9C76
  8
0
  2
*U48
 10
0.0
 20
0.0
 30
0.0
  0
INSERT
  5
9C77
  8
0
  2
*U49
 10
0.0
 20
0.0
 30
0.0
  0
INSERT
  5
9C78
  8
0
  2
*U50
 10
0.0
 20
0.0
 30
0.0
  0
LINE
  5
9C79
  8
0
 10
16.163399369223981
 20
21.482347525368851
 30
0.0
 11
16.019465606244012
 21
21.482347525368851
 31
0.0
  0
LINE
  5
9C7A
  8
0
 10
16.63140813852257
 20
21.45084752536885
 30
0.0
 11
16.4874743755426
 21
21.45084752536885
 31
0.0
  0
LINE
  5
9C7C
  8
0
 10
18.602812693930758
 20
23.14140931228761
 30
0.0
 11
18.602812693930758
 21
23.28534307526758
 31
0.0
  0
LINE
  5
9C7D
  8
0
 10
18.209112693930759
 20
23.14140931228761
 30
0.0
 11
18.209112693930759
 21
23.28534307526758
 31
0.0
  0
LINE
  5
9C7E
  8
0
 10
17.81541269393076
 20
23.14140931228761
 30
0.0
 11
17.81541269393076
 21
23.28534307526758
 31
0.0
  0
LINE
  5
9C7F
  8
0
 10
17.421712693930768
 20
23.14140931228761
 30
0.0
 11
17.421712693930768
 21
23.28534307526758
 31
0.0
  0
INSERT
  5
9C80
  8
0
  2
*U51
 10
0.0
 20
0.0
 30
0.0
  0
INSERT
  5
9C81
  8
0
  2
*U52
 10
0.0
 20
0.0
 30
0.0
  0
INSERT
  5
9C82
  8
0
  2
*U53
 10
0.0
 20
0.0
 30
0.0
  0
INSERT
  5
9C83
  8
0
  2
*U54
 10
0.0
 20
0.0
 30
0.0
  0
INSERT
  5
9C84
  8
0
  2
*U55
 10
0.0
 20
0.0
 30
0.0
  0
INSERT
  5
9C85
  8
0
  2
*U56
 10
0.0
 20
0.0
 30
0.0
  0
INSERT
  5
9C86
  8
0
  2
*U57
 10
0.0
 20
0.0
 30
0.0
  0
LINE
  5
9C87
  8
0
 10
17.39021269393076
 20
23.660063344602172
 30
0.0
 11
17.39021269393076
 21
23.803997107582141
 31
0.0
  0
INSERT
  5
9C88
  8
0
  2
*U58
 10
0.0
 20
0.0
 30
0.0
  0
LINE
  5
9C89
  8
0
 10
18.39021269393076
 20
23.660063344602172
 30
0.0
 11
18.39021269393076
 21
23.803997107582141
 31
0.0
  0
POINT
  5
9C8A
  8
0
 10
18.39021269393076
 20
23.73203022609216
 30
0.0
  0
LINE
  5
9C8B
  8
0
 10
19.39021269393076
 20
22.18434752536885
 30
0.0
 11
19.39021269393076
 21
22.311763911584151
 31
0.0
  0
LINE
  5
9C90
  8
0
 10
19.783912693930759
 20
23.14140931228761
 30
0.0
 11
19.783912693930759
 21
23.28534307526758
 31
0.0
  0
LINE
  5
9C91
  8
0
 10
19.39021269393076
 20
23.14140931228761
 30
0.0
 11
19.39021269393076
 21
23.28534307526758
 31
0.0
  0
LINE
  5
9C92
  8
0
 10
18.996512693930761
 20
23.14140931228761
 30
0.0
 11
18.996512693930761
 21
23.28534307526758
 31
0.0
  0
INSERT
  5
9C93
  8
0
  2
*U59
 10
0.0
 20
0.0
 30
0.0
  0
INSERT
  5
9C94
  8
0
  2
*U60
 10
0.0
 20
0.0
 30
0.0
  0
LINE
  5
9C95
  8
0
 10
19.39021269393076
 20
22.88325461452083
 30
0.0
 11
19.39021269393076
 21
22.978796072569981
 31
0.0
  0
INSERT
  5
9C96
  8
0
  2
*U61
 10
0.0
 20
0.0
 30
0.0
  0
INSERT
  5
9C97
  8
0
  2
*U62
 10
0.0
 20
0.0
 30
0.0
  0
LINE
  5
9C98
  8
0
 10
19.39021269393076
 20
23.370241539539961
 30
0.0
 11
19.39021269393076
 21
23.465782997589109
 31
0.0
  0
LINE
  5
9C99
  8
0
 10
19.39021269393076
 20
23.660063344602172
 30
0.0
 11
19.39021269393076
 21
23.803997107582141
 31
0.0
  0
LINE
  5
9C9A
  8
0
 10
20.96501269393076
 20
23.14140931228761
 30
0.0
 11
20.96501269393076
 21
23.28534307526758
 31
0.0
  0
LINE
  5
9C9B
  8
0
 10
20.571312693930761
 20
23.14140931228761
 30
0.0
 11
20.571312693930761
 21
23.28534307526758
 31
0.0
  0
LINE
  5
9C9C
  8
0
 10
20.177612693930762
 20
23.14140931228761
 30
0.0
 11
20.177612693930762
 21
23.28534307526758
 31
0.0
  0
INSERT
  5
9C9D
  8
0
  2
*U63
 10
0.0
 20
0.0
 30
0.0
  0
INSERT
  5
9C9E
  8
0
  2
*U64
 10
0.0
 20
0.0
 30
0.0
  0
INSERT
  5
9C9F
  8
0
  2
*U65
 10
0.0
 20
0.0
 30
0.0
  0
INSERT
  5
9CA0
  8
0
  2
*U66
 10
0.0
 20
0.0
 30
0.0
  0
LINE
  5
9CA1
  8
0
 10
20.39021269393076
 20
23.660063344602172
 30
0.0
 11
20.39021269393076
 21
23.803997107582141
 31
0.0
  0
POINT
  5
9CA2
  8
0
 10
20.39021269393076
 20
23.73203022609216
 30
0.0
  0
LINE
  5
9CA3
  8
0
 10
18.625212693930759
 20
24.282347525368859
 30
0.0
 11
18.625212693930759
 21
24.982347525368851
 31
0.0
  0
LINE
  5
9CA4
  8
0
 10
19.39021269393076
 20
24.263692224535969
 30
0.0
 11
19.39021269393076
 21
24.982347525368851
 31
0.0
  0
LINE
  5
9CA6
  8
TITLE
  6
ACAD_ISO07W100
 10
23.140212693930771
 20
24.282347525368859
 30
0.0
 11
23.140212693930771
 21
14.682347525368851
 31
0.0
  0
LINE
  5
9CA7
  8
0
 10
23.640212693930771
 20
24.982347525368851
 30
0.0
 11
23.640212693930771
 21
13.98234752536885
 31
0.0
  0
LINE
  5
9CB1
  8
0
 10
21.71388947641449
 20
19.482347525368851
 30
0.0
 11
23.640212693930771
 21
19.482347525368851
 31
0.0
  0
LINE
  5
9CB4
  8
0
 10
20.30521269393078
 20
22.034347525368851
 30
0.0
 11
23.640212693930771
 21
22.034347525368851
 31
0.0
  0
INSERT
  5
9CB6
  8
0
  2
*U67
 10
0.0
 20
0.0
 30
0.0
  0
LINE
  5
9CB7
  8
0
 10
21.358712693930759
 20
23.14140931228761
 30
0.0
 11
21.358712693930759
 21
23.28534307526758
 31
0.0
  0
INSERT
  5
9CB8
  8
0
  2
*U68
 10
0.0
 20
0.0
 30
0.0
  0
INSERT
  5
9CB9
  8
0
  2
*U69
 10
0.0
 20
0.0
 30
0.0
  0
LINE
  5
9CBA
  8
0
 10
21.39021269393076
 20
23.660063344602172
 30
0.0
 11
21.39021269393076
 21
23.803997107582141
 31
0.0
  0
LINE
  5
9D50
  8
0
 10
18.62521269393077
 20
22.18434752536885
 30
0.0
 11
18.62521269393077
 21
22.69401307023006
 31
0.0
  0
LINE
  5
A090
  8
OBJECT
 10
18.62521269393077
 20
22.034347525368851
 30
0.0
 11
20.155212693930771
 21
22.034347525368851
 31
0.0
  0
LINE
  5
A091
  8
OBJECT
 10
20.155212693930771
 20
22.034347525368851
 30
0.0
 11
20.155212693930771
 21
16.930347525368848
 31
0.0
  0
LINE
  5
A092
  8
OBJECT
 10
20.155212693930771
 20
16.930347525368848
 30
0.0
 11
18.62521269393077
 21
16.930347525368848
 31
0.0
  0
LINE
  5
A093
  8
OBJECT
 10
18.62521269393077
 20
16.930347525368848
 30
0.0
 11
18.62521269393077
 21
22.034347525368851
 31
0.0
  0
LINE
  5
A09C
  8
0
 10
20.155212693930771
 20
24.282347525368859
 30
0.0
 11
20.155212693930771
 21
24.982347525368851
 31
0.0
  0
LINE
  5
A09D
  8
0
 10
20.155212693930778
 20
22.18434752536885
 30
0.0
 11
20.155212693930778
 21
22.69401307023006
 31
0.0
  0
LINE
  5
A0A0
  8
0
 10
15.14021269393078
 20
22.03434752536884
 30
0.0
 11
18.475212693930771
 21
22.03434752536884
 31
0.0
  0
LINE
  5
A0A1
  8
0
 10
20.30521269393078
 20
16.930347525368848
 30
0.0
 11
23.640212693930771
 21
16.930347525368848
 31
0.0
  0
LINE
  5
A0A2
  8
0
 10
15.14021269393078
 20
16.93034752536887
 30
0.0
 11
18.475212693930771
 21
16.93034752536887
 31
0.0
  0
LINE
  5
A0A3
  8
0
 10
19.39021269393076
 20
16.78034752536885
 30
0.0
 11
19.39021269393076
 21
16.552335002471061
 31
0.0
  0
LINE
  5
A0A4
  8
0
 10
19.39021269393076
 20
15.59445351119774
 30
0.0
 11
19.39021269393076
 21
15.49891205314859
 31
0.0
  0
LINE
  5
A0A5
  8
0
 10
18.625212693930759
 20
14.682347525368851
 30
0.0
 11
18.625212693930759
 21
13.98234752536885
 31
0.0
  0
LINE
  5
A0A6
  8
0
 10
19.39021269393076
 20
14.70100282620173
 30
0.0
 11
19.39021269393076
 21
13.98234752536885
 31
0.0
  0
LINE
  5
A0A7
  8
0
 10
18.62521269393077
 20
16.78034752536885
 30
0.0
 11
18.62521269393077
 21
15.24891205314859
 31
0.0
  0
LINE
  5
A0A8
  8
0
 10
20.155212693930771
 20
14.682347525368851
 30
0.0
 11
20.155212693930771
 21
13.98234752536885
 31
0.0
  0
LINE
  5
A0A9
  8
0
 10
20.155212693930778
 20
16.78034752536885
 30
0.0
 11
20.155212693930778
 21
15.24891205314859
 31
0.0
  0
DIMENSION
  5
A0AC
  8
0
  2
*D4
 10
19.390212693930771
 20
16.930347525368848
 30
0.0
 11
19.390212693930771
 21
20.506341766195249
 31
0.0
 70
   128
 13
19.390212693930771
 23
22.034347525368851
 33
0.0
 14
19.390212693930771
 24
16.930347525368848
 34
0.0
 50
90.0
1001
ACAD
1000
DSTYLE
1002
{
1070
   270
1070
     3
1070
     3
1000
\X
1070
    47
1040
0.005
1070
    48
1040
0.005
1070
   141
1040
-0.09
1070
   170
1070
     1
1070
   174
1070
     0
1070
   277
1070
     3
1070
   284
1070
     4
1070
   288
1070
     1
1002
}
  0
DIMENSION
  5
A0C4
  8
0
  2
*D5
 10
20.155212693930771
 20
19.482347525368851
 30
0.0
 11
20.871879360597429
 21
19.482347525368851
 31
0.0
 70
   128
 13
18.62521269393077
 23
19.482347525368851
 33
0.0
 14
20.155212693930771
 24
19.482347525368851
 34
0.0
1001
ACAD
1000
DSTYLE
1002
{
1070
   270
1070
     3
1070
     3
1000
\X
1070
    47
1040
0.005
1070
    48
1040
0.005
1070
   141
1040
-0.09
1070
   170
1070
     1
1070
   174
1070
     0
1070
   277
1070
     3
1070
   284
1070
     4
1070
   288
1070
     1
1002
}
  0
LINE
  5
A348
  8
0
 10
19.39021269393076
 20
16.105884213266631
 30
0.0
 11
19.39021269393076
 21
15.24891205314859
 31
0.0
  0
LINE
  5
A34B
  8
0
 10
19.475619135430769
 20
22.822631378876761
 30
0.0
 11
19.475619135430769
 21
22.439587836860941
 31
0.0
  0
LINE
  5
A34C
  8
0
 10
19.284097364422859
 20
22.631109607868851
 30
0.0
 11
19.667140906438689
 21
22.631109607868851
 31
0.0
  0
LINE
  5
A34D
  8
0
 10
19.475619135430769
 20
16.520631378876761
 30
0.0
 11
19.475619135430769
 21
16.137587836860941
 31
0.0
  0
LINE
  5
A34E
  8
0
 10
19.284097364422859
 20
16.329109607868851
 30
0.0
 11
19.667140906438689
 21
16.329109607868851
 31
0.0
  0
INSERT
  5
A34F
  8
0
  2
*U75
 10
0.0
 20
0.0
 30
0.0
1001
ACAD_MLEADERVER
1070
     2
  0
INSERT
  5
A350
  8
0
  2
*U76
 10
0.0
 20
0.0
 30
0.0
  0
INSERT
  5
A351
  8
0
  2
*U77
 10
0.0
 20
0.0
 30
0.0
1001
ACAD_MLEADERVER
1070
     2
  0
INSERT
  5
A352
  8
0
  2
*U78
 10
0.0
 20
0.0
 30
0.0
  0
CIRCLE
  5
A38A
  8
0
  6
HIDDEN
 10
19.475619135430769
 20
22.631109607868851
 30
0.0
 40
0.0952133459402553
  0
CIRCLE
  5
A38B
  8
0
  6
HIDDEN
 10
19.475619135430769
 20
16.329109607868851
 30
0.0
 40
0.0952133459402553
  0
POLYLINE
  5
A55F
  8
0
  6
HIDDEN
 66
     1
 10
0.0
 20
0.0
 30
0.0
 70
     1
  0
VERTEX
  5
A807
  8
0
  6
HIDDEN
 10
19.25561909383115
 20
18.501109529064159
 30
0.0
  0
VERTEX
  5
A808
  8
0
  6
HIDDEN
 10
19.695619127131138
 20
18.501109559073541
 30
0.0
 42
-0.4142135823619501
  0
VERTEX
  5
A809
  8
0
  6
HIDDEN
 10
19.795619133951458
 20
18.401109559069219
 30
0.0
  0
VERTEX
  5
A80A
  8
0
  6
HIDDEN
 10
19.79561913391008
 20
17.441109599469229
 30
0.0
 42
-0.4142135423842403
  0
VERTEX
  5
A80B
  8
0
  6
HIDDEN
 10
19.69561914073039
 20
17.34110959947354
 30
0.0
  0
VERTEX
  5
A80C
  8
0
  6
HIDDEN
 10
19.255619107430391
 20
17.341109569464159
 30
0.0
 42
-0.4142135823619497
  0
VERTEX
  5
A80D
  8
0
  6
HIDDEN
 10
19.155619100610082
 20
17.44110956946847
 30
0.0
  0
VERTEX
  5
A80E
  8
0
  6
HIDDEN
 10
19.15561910065146
 20
18.401109529068471
 30
0.0
 42
-0.4142135423842401
  0
SEQEND
  5
A80F
  8
0
  6
HIDDEN
  0
INSERT
  5
A584
  8
0
  2
*U83
 10
0.0
 20
0.0
 30
0.0
1001
ACAD_MLEADERVER
1070
     2
  0
INSERT
  5
A585
  8
0
  2
*U84
 10
0.0
 20
0.0
 30
0.0
  0
ENDSEC
  0
EOF
